<?xml version="1.0" standalone="no"?>
<!DOCTYPE svg PUBLIC "-//W3C//DTD SVG 1.1//EN" "http://www.w3.org/Graphics/SVG/1.1/DTD/svg11.dtd" >
<svg xmlns="http://www.w3.org/2000/svg" xmlns:xlink="http://www.w3.org/1999/xlink" version="1.1">
<metadata>
Created by FontForge 20170812 at Wed Dec 15 16:46:45 2021
 By www-data
</metadata>
<defs>
<font id="TheNativityRegular" horiz-adv-x="0" >
  <font-face 
    font-family="The Nativity"
    font-weight="400"
    font-stretch="normal"
    units-per-em="1000"
    panose-1="0 0 0 0 0 0 0 0 0 0"
    ascent="800"
    descent="-200"
    x-height="378.773"
    cap-height="876.328"
    bbox="-690.001 -916.74 1867.62 1149.4"
    underline-thickness="50"
    underline-position="-100"
    unicode-range="U+000A-F005"
  />
<missing-glyph horiz-adv-x="527" 
d="M50 700h427v-700h-427v700zM78 680l185 -309l186 309h-371zM251 350l-180 300v-601zM264 329l-185 -308h370zM276 350l181 -303v605z" />
    <glyph glyph-name=".notdef" horiz-adv-x="527" 
d="M50 700h427v-700h-427v700zM78 680l185 -309l186 309h-371zM251 350l-180 300v-601zM264 329l-185 -308h370zM276 350l181 -303v605z" />
    <glyph glyph-name=".null" 
 />
    <glyph glyph-name=".null" 
 />
    <glyph glyph-name="LF" unicode="&#xa;" 
 />
    <glyph glyph-name="controlCR" unicode="&#xd;" 
 />
    <glyph glyph-name="space" unicode=" " horiz-adv-x="292" 
 />
    <glyph glyph-name="exclam" unicode="!" horiz-adv-x="214" 
d="M149.794 74.7842c-6.12402 -22.084 -63.5205 -20.6924 -70.7559 0c-18.8252 53.8535 -17.6113 115.997 -20.2627 172.482c-2.60938 55.6035 -4.47656 111.314 -5.5459 166.965c-2.19824 114.316 -5.47949 228.978 -0.974609 343.261
c1.58691 40.1807 100.746 39.9844 102.184 -0.000976562c4.1123 -114.33 2.44629 -228.87 4.04785 -343.261c0.797852 -57.1816 1.44629 -114.414 1.51172 -171.6c0.0556641 -55.1553 4.65332 -114.273 -10.2041 -167.847zM159.265 -104.685
c1.89941 -17.1592 3.47363 -34.3506 4.72949 -51.5703c2.1377 -29.3838 -73.6826 -30.2656 -76.6562 0.000976562c-2.99219 30.4766 -6.71289 72.1416 8.12207 100.116c8.44434 15.9219 46.0723 16.8037 54.2266 -0.000976562
c7.27246 -14.9932 7.7627 -32.166 9.57812 -48.5459z" />
    <glyph glyph-name="quotedbl" unicode="&#x22;" horiz-adv-x="262" 
d="M51.9346 737.43c3.73926 29.8701 77.916 27.5605 74.4668 0.00195312c-2.8291 -22.6533 -4.66406 -45.2646 -4.96289 -68.0996c-0.181641 -14.1436 3.09082 -33.2822 -2.31445 -46.749c-3.38379 -8.4209 -20.6035 -9.04688 -27.3721 -7.87988
c-10.335 1.7832 -18.8584 8.02832 -24.292 16.8643c-18.2236 29.6367 -19.6982 72.5107 -15.5254 105.862zM145.562 735.475c5.57812 21.2949 70.2285 18.1299 65.9717 -5.08789c-3.38867 -18.4893 -8.29492 -36.6611 -11.4502 -55.1924
c-1.12988 -6.64746 -7.44043 -42.5342 -6.10059 -44.2842c5.84863 -7.61816 -2.7959 -12.3145 -9.71875 -13.6172c-61.0186 -11.4688 -47.2861 85.4268 -38.7021 118.182z" />
    <glyph glyph-name="quotedbl" unicode="&#x201d;" horiz-adv-x="262" 
d="M51.9346 737.43c3.73926 29.8701 77.916 27.5605 74.4668 0.00195312c-2.8291 -22.6533 -4.66406 -45.2646 -4.96289 -68.0996c-0.181641 -14.1436 3.09082 -33.2822 -2.31445 -46.749c-3.38379 -8.4209 -20.6035 -9.04688 -27.3721 -7.87988
c-10.335 1.7832 -18.8584 8.02832 -24.292 16.8643c-18.2236 29.6367 -19.6982 72.5107 -15.5254 105.862zM145.562 735.475c5.57812 21.2949 70.2285 18.1299 65.9717 -5.08789c-3.38867 -18.4893 -8.29492 -36.6611 -11.4502 -55.1924
c-1.12988 -6.64746 -7.44043 -42.5342 -6.10059 -44.2842c5.84863 -7.61816 -2.7959 -12.3145 -9.71875 -13.6172c-61.0186 -11.4688 -47.2861 85.4268 -38.7021 118.182z" />
    <glyph glyph-name="quotedbl" unicode="&#x201c;" horiz-adv-x="262" 
d="M51.9346 737.43c3.73926 29.8701 77.916 27.5605 74.4668 0.00195312c-2.8291 -22.6533 -4.66406 -45.2646 -4.96289 -68.0996c-0.181641 -14.1436 3.09082 -33.2822 -2.31445 -46.749c-3.38379 -8.4209 -20.6035 -9.04688 -27.3721 -7.87988
c-10.335 1.7832 -18.8584 8.02832 -24.292 16.8643c-18.2236 29.6367 -19.6982 72.5107 -15.5254 105.862zM145.562 735.475c5.57812 21.2949 70.2285 18.1299 65.9717 -5.08789c-3.38867 -18.4893 -8.29492 -36.6611 -11.4502 -55.1924
c-1.12988 -6.64746 -7.44043 -42.5342 -6.10059 -44.2842c5.84863 -7.61816 -2.7959 -12.3145 -9.71875 -13.6172c-61.0186 -11.4688 -47.2861 85.4268 -38.7021 118.182z" />
    <glyph glyph-name="numbersign" unicode="#" horiz-adv-x="581" 
d="M514.521 252.299c22.5088 -0.933594 22.6768 -22.1865 0.00488281 -21.2344c-32.7031 1.3584 -65.4297 1.76953 -98.1426 1.27441c-4.30371 -63.0166 -8.21094 -126.056 -12.4307 -189.076c-2.46973 -36.9512 -4.40234 -73.9395 -7.55762 -110.834
c-3.05273 -35.7373 -4.84473 -72.375 -17.168 -106.413c-6.42773 -17.7568 -55.2773 -19.0781 -60.9072 -0.000976562c-10.666 36.167 -9.76465 73.7012 -10.0166 111.035c-0.24707 36.9365 1.16309 73.9062 2.21777 110.829
c1.71289 60.0566 4.61621 120.058 7.93555 180.04c-10.5918 -0.816406 -21.1836 -1.71289 -31.7607 -2.74902c-5.86719 -0.574219 -11.7344 -1.2041 -17.5977 -1.85254c-3.61719 -48.667 -6.66113 -97.3906 -9.06934 -146.109
c-3.69238 -74.6768 -3.12793 -150.235 -16.2588 -223.913c-4.84961 -27.2227 -62.7549 -26.415 -68.2676 0c-15.5957 74.7656 -13.7002 152.354 -12.2676 228.479c0.8125 43.1875 2.53027 86.3096 4.89648 129.403c-34.0938 -3.71582 -68.2627 -6.31543 -102.66 -5.55957
c-20.623 0.453125 -20.6367 19.6143 0 19.3711c34.8086 -0.415039 69.3652 2.75488 103.856 6.95605c1.47949 24.4551 3.09961 48.9102 5.03711 73.3516c2.23145 28.1846 4.79395 56.3457 7.55273 84.4834c-35.1162 -2.81445 -70.2236 -3.51953 -104.327 3.6084
c-23.1289 4.83594 -8.10742 23.1289 9.4248 19.4834c31.3076 -6.51172 64.0156 -5.95605 96.8398 -3.28125c4.06543 39.499 8.66797 78.9424 14.0078 118.288c10.1338 74.667 18.8389 151.355 39.7461 223.903c8.58887 29.8086 97.4365 27.666 94.627 -7.30078
c-6.06836 -75.5215 -22.4805 -150.521 -32.3906 -225.664c-4.36426 -33.0947 -8.45801 -66.2178 -12.2764 -99.374c14.4561 0.774414 28.9219 1.3623 43.3877 1.8291c1.84375 24.6699 3.74316 49.3398 5.74609 74.0049c5.98438 73.5889 10.1758 148.027 21.873 220.972
c5.88184 36.6943 96.9893 37.6465 95.6172 0c-2.74902 -75.2881 -12.2666 -150.501 -18.4326 -225.579c-1.87695 -22.835 -3.61816 -45.6797 -5.39648 -68.5244c21.5 -0.307617 43.0049 -0.886719 64.4961 -1.80664c21.8408 -0.933594 22.0088 -21.5791 0 -20.6172
c-22.0322 0.96582 -44.0742 1.57227 -66.1162 1.88965c-3.38379 -44.0693 -6.66504 -88.1436 -9.81152 -132.223c-0.373047 -5.28418 -0.722656 -10.5684 -1.0918 -15.8525c32.2178 0.476562 64.4492 0.0986328 96.6807 -1.23633zM320.785 269.388
c2.54883 43.8262 5.47852 87.623 8.65723 131.398c-14.7363 -0.47168 -29.4678 -1.12012 -44.1992 -1.90918c-3.63184 -32.6797 -6.99316 -65.3877 -9.91016 -98.1426c-1.65234 -18.6016 -3.20703 -37.2168 -4.66797 -55.8418
c7.98633 0.881836 15.9688 1.70801 23.9648 2.4082c8.3418 0.732422 16.6836 1.38086 25.0254 1.9873c0.37793 6.69824 0.742188 13.4014 1.12988 20.0996z" />
    <glyph glyph-name="dollar" unicode="$" horiz-adv-x="460" 
d="M284.214 334.92c64.6963 -68.9258 134.541 -158.642 125.065 -259.178c-8.63574 -91.6719 -79.3164 -154.94 -167.403 -162.787c1.08301 -26.873 2.14258 -53.7412 3.37988 -80.6045c0.629883 -13.7051 -34.8457 -14.0039 -35.4482 0
c-1.14844 26.8125 -2.12402 53.6338 -3.11816 80.4512c-79.9561 6.68457 -147.001 61.9189 -156.64 145.18c-1.55859 13.4854 33.8096 14.1299 35.8125 0c7.58984 -53.4941 45.8242 -105.289 100.597 -117.15c6.58203 -1.42871 12.9961 -2.05371 19.2227 -1.99316
c-4.33203 122.798 -7.03516 245.638 -8.13184 368.496c-55.7432 61.2891 -118.76 124.422 -134.332 205.456c-16.6504 86.6406 53.0781 155.058 135.933 162.144c0.466797 27.0967 0.919922 54.1982 1.54492 81.2949c0.298828 12.8506 32.7822 12.6172 32.5303 0
c-0.541016 -27.1719 -0.910156 -54.3486 -1.29297 -81.5254c71.582 -7.09082 136.479 -56.2715 159.165 -125.753c4.7334 -14.5029 -29.2949 -17.1543 -33.4775 -5.26074c-17.2803 49.1621 -56.5654 89.5908 -107.104 104.598
c-5.97461 1.77344 -12.3506 3.06641 -18.9414 3.8877c-1.09668 -87.2188 -1.35352 -174.438 -0.816406 -261.656c17.7656 -18.6152 35.9053 -36.8994 53.4561 -55.5986zM197.003 427.345c-0.0283203 74.9521 0.53125 149.907 1.70801 224.859
c-33.6035 -4.1123 -65.7139 -21.1543 -75.5674 -54.5576c-15.5576 -52.7471 22.4717 -106.451 53.1904 -145.512c6.65137 -8.45801 13.5967 -16.6777 20.6689 -24.79zM297.328 9.75586c37.7256 88.1572 -7.34375 186.17 -62.835 255.002
c-0.797852 0.989258 -1.62402 1.97852 -2.43164 2.96777c1.5918 -106.964 4.33691 -213.919 8.38379 -320.827c25.3887 11.9355 45.3154 35.8262 56.8828 62.8574z" />
    <glyph glyph-name="percent" unicode="%" horiz-adv-x="721" 
d="M509.852 795.928c16.4912 32.1758 113.572 26.6816 97.8232 -15.3711c-62.4326 -166.807 -137.221 -329.113 -203.957 -494.271c-32.9082 -81.4404 -64.5098 -163.375 -96.667 -245.114c-33.7998 -85.9258 -65.0742 -172.468 -110.959 -252.849
c-7.93066 -13.9014 -27.2373 -16.5205 -41.6514 -15.5029c-9.2373 0.65332 -35.3076 6.55371 -32.918 21.2529c14.3867 88.4326 46.3242 171.343 77.0293 255.154c30.6914 83.7695 63.7773 166.741 96.8262 249.605c66.6895 167.222 132.306 336.764 214.474 497.096z
M213.259 355.449c-53.1992 -37.6885 -126.494 -19.0352 -149.735 44.8027c-25.4121 69.7988 -10.1621 149.209 6.24512 219.166c4.97559 21.2295 28.3711 27.4609 48.1719 27.4609c2.95898 0 7.14648 -0.345703 11.7959 -1.07422
c26.0654 12.5752 56.6729 15.5859 86.6455 5.96973c120.165 -38.5469 78.1914 -238.724 -3.12305 -296.325zM166.118 619.423c-10.209 -64.1035 -22.5576 -127.397 -19.5605 -192.612c0.835938 -18.1016 3.18848 -69.9521 31.6113 -60.5322
c25.417 8.4209 43.6641 44.3311 54.0312 66.9092c22.3594 48.709 33.7539 120.155 5.80273 169.149c-15.5303 27.2275 -47.9531 42.4023 -78.5322 32.5068l-0.111328 -0.0410156c4.87305 -3.93457 7.77637 -8.98047 6.75879 -15.3799zM596.568 242.958
c120.165 -38.5469 78.1914 -238.724 -3.11816 -296.325c-53.2041 -37.6885 -126.499 -19.04 -149.74 44.8027c-25.4121 69.7988 -10.1621 149.209 6.24512 219.166c4.97559 21.2295 28.3711 27.4609 48.1719 27.4609c2.95898 0 7.14648 -0.345703 11.7959 -1.07422
c26.0654 12.5752 56.6729 15.5859 86.6455 5.96973zM558.353 -42.5469c25.417 8.42578 43.6621 44.3301 54.0293 66.9131c22.3594 48.709 33.7539 120.155 5.80273 169.149c-15.5303 27.2227 -47.9531 42.4023 -78.5322 32.5068l-0.111328 -0.0410156
c4.87305 -3.93457 7.77637 -8.98047 6.75879 -15.3799c-10.209 -64.0996 -22.5557 -127.392 -19.5586 -192.611c0.831055 -18.1064 3.18848 -69.957 31.6113 -60.5371z" />
    <glyph glyph-name="ampersand" unicode="&#x26;" horiz-adv-x="588" 
d="M506.441 273.351c33.1045 -35.7461 36.7285 -88.7939 27.9199 -134.464c-17.8457 -92.6289 -77.5342 -177.402 -154.47 -230.798c-74.8496 -51.9482 -193.329 -85.2021 -271.591 -21.6074c-81.8184 66.4795 -65.1865 196.181 -24.9453 280.165
c36.6426 76.4639 92.4512 141.65 159.08 193.23c-71.5957 24.8232 -136.619 68.9951 -152.653 148.605c-16.9209 84.0078 24.3994 173.397 88.6807 226.882c65.2012 54.25 168.044 98.8838 251.244 61.2285c73.458 -33.249 89.7021 -127.507 35.8252 -187.209
c-45.7637 -50.7207 -164.832 -40.8623 -160.729 43.7656c1.13477 23.3486 60.8086 20.6836 53.7979 -4.14941c-5.14355 -18.2002 2.49805 -42.6602 21.8555 -49.3447c23.8994 -8.25293 48.0371 13.2051 59.7305 31.6016c20.3984 32.0918 24.5762 78.1729 1.40039 110.026
c-48.8721 67.1709 -143.672 10.918 -184.828 -35.21c-45.7314 -51.2578 -79.5547 -127.419 -62.4053 -196.904c16.6133 -67.3203 80.3525 -97.6289 142.827 -110.34c25.748 -5.2373 55.5801 -28.4785 22.8633 -49.3623
c-71.3486 -45.5488 -132.045 -109.466 -173.09 -183.577c-36.0918 -65.168 -65.2334 -151.01 -36.7451 -224.375c14.7227 -37.9121 41.166 -57.1768 82.3408 -58.5957c41.5439 -1.42871 80.3203 13.7236 114.793 35.8311c65.4346 41.959 115.017 108.84 141.213 181.542
c11.9307 33.1143 19.1055 69.248 14.2041 104.485c-2.79102 20.0723 -10.0312 40.8721 -23.2363 56.584c-12.0762 14.3633 -35.3506 29.9404 -52.8828 15.5635c-0.943359 -0.774414 -2.18066 -1.35742 -3.55273 -1.8291
c-0.419922 -1.30273 -0.831055 -2.62793 -1.2793 -3.87402c-7.30957 -20.3848 -13.4287 -41.1191 -20.9717 -61.4199c-5.69922 -15.3477 -54.0068 -13.9424 -50.2119 3.875c8.47656 39.8262 26.6201 87.835 58.002 115.455
c6.53027 5.75098 40.9463 4.36035 32.0586 -7.70605c-4.28516 -5.81641 -7.2959 -13.0098 -9.82129 -20.5488c27.0498 4.17773 56.583 -7.01074 75.5762 -27.5264z" />
    <glyph glyph-name="quotesingle" unicode="'" horiz-adv-x="177" 
d="M112.504 645.674c13.7979 -12.1035 -18.7725 -15.6973 -24.7422 -14.1006c-52.4766 13.999 -39.6357 105.414 -24.2598 142.253c7.82324 18.7412 65.0469 19.7305 63.8242 -4.9248c-1.125 -22.6113 -8.82227 -44.0879 -12.2021 -66.4141
c-1.66211 -10.9697 -2.73145 -22.1074 -3.24023 -33.1846c-0.177734 -3.88867 -2.68945 -20.7256 0.620117 -23.6289z" />
    <glyph glyph-name="quotesingle" unicode="&#x2019;" horiz-adv-x="177" 
d="M112.504 645.674c13.7979 -12.1035 -18.7725 -15.6973 -24.7422 -14.1006c-52.4766 13.999 -39.6357 105.414 -24.2598 142.253c7.82324 18.7412 65.0469 19.7305 63.8242 -4.9248c-1.125 -22.6113 -8.82227 -44.0879 -12.2021 -66.4141
c-1.66211 -10.9697 -2.73145 -22.1074 -3.24023 -33.1846c-0.177734 -3.88867 -2.68945 -20.7256 0.620117 -23.6289z" />
    <glyph glyph-name="quotesingle" unicode="&#x2018;" horiz-adv-x="177" 
d="M112.504 645.674c13.7979 -12.1035 -18.7725 -15.6973 -24.7422 -14.1006c-52.4766 13.999 -39.6357 105.414 -24.2598 142.253c7.82324 18.7412 65.0469 19.7305 63.8242 -4.9248c-1.125 -22.6113 -8.82227 -44.0879 -12.2021 -66.4141
c-1.66211 -10.9697 -2.73145 -22.1074 -3.24023 -33.1846c-0.177734 -3.88867 -2.68945 -20.7256 0.620117 -23.6289z" />
    <glyph glyph-name="parenleft" unicode="(" horiz-adv-x="454" 
d="M393.598 -139.844c24.7021 -7.13672 -1.10742 -25.1992 -16.334 -22.0674c-91.2148 18.7461 -172.207 68.7949 -228.87 142.78c-114.703 149.764 -109.984 362.613 -80.8428 539.945c15.5303 94.4961 45.3857 189.417 90.7109 273.9
c35.3447 65.8818 87.7793 155.374 169.64 165.027c17.4209 2.05371 33.0205 -16.4033 9.4248 -19.4844c-46.5576 -6.08691 -77.1738 -47.7432 -95.9531 -87.2842c-20.165 -42.4541 -36.5635 -87.4287 -49.792 -132.502
c-24.2402 -82.5791 -37.5342 -167.539 -45.1797 -253.166c-7.68359 -86.0566 -10.8486 -173.808 1.9834 -259.515c20.8047 -138.981 99.1318 -305.409 245.213 -347.635z" />
    <glyph glyph-name="parenright" unicode=")" horiz-adv-x="453" 
d="M391.044 487.909c13.0791 -96.541 17.4004 -196.062 1.38965 -292.542c-14.7275 -88.7451 -47.0107 -171.282 -107.311 -238.994c-54.4736 -61.168 -128.688 -101.862 -208.668 -118.298c-15.5342 -3.19238 -40.6377 15.0498 -16.3271 22.0752
c76.8564 22.2148 136.843 82.6963 176.454 150.567c86.4346 148.102 86.2666 323.8 67.3945 489.537c-9.87207 86.7061 -24.6504 172.366 -52.9092 255.179c-22.2939 65.3359 -53.0176 174.148 -134.673 184.819c-23.6709 3.09473 -7.90723 21.5283 9.4248 19.4834
c45.6191 -5.37695 77.7012 -33.4492 105.209 -68.2393c31.9746 -40.4326 59.2354 -83.8389 81.2168 -130.508c40.3867 -85.749 66.0879 -179.256 78.7988 -273.08z" />
    <glyph glyph-name="asterisk" unicode="*" horiz-adv-x="294" 
d="M227.478 667.118c21.79 -1.125 22.0195 -21.7832 -0.0078125 -20.6211c-15.9033 0.844727 -31.7744 1.14355 -47.6221 1.01758c17.7422 -13.6064 35.2471 -27.2646 50.3613 -44.0645c12.2949 -13.668 -23.0781 -20.2773 -31.8682 -10.6191
c-11.623 12.7764 -24.6602 23.7461 -38.0713 34.3418c0.0556641 -20.8984 -0.238281 -41.7969 -1.00391 -62.6953c-0.480469 -13.0791 -32.9453 -13 -33.2578 0c-0.443359 18.5498 -0.970703 37.0908 -1.55859 55.6318
c-11.3242 -12.1221 -22.5225 -24.3662 -33.5615 -36.7598c-8.57031 -9.625 -42.7715 -2.81445 -30.9199 10.3018c15.2871 16.9121 30.9482 33.4414 46.7861 49.7832c-11.7354 -1.23242 -23.4561 -2.69824 -35.168 -4.48633
c-17.752 -2.70703 -33.1602 16.0439 -9.51758 19.6846c17 2.61426 34.042 4.63574 51.1123 6.18066c-15.7539 13.2891 -31.2188 27.0498 -46.3848 40.7686c-12.4912 11.3057 19.0078 16.0244 26.4062 11.6133c9.95703 -5.9375 19.1621 -13 28.0586 -20.4922
c-0.71875 13.2705 -1.5127 26.5322 -2.45996 39.7939c-1.0459 14.666 37.6045 15.2588 38.3652 0c0.686523 -13.7188 1.27441 -27.4473 1.75977 -41.1758c12.5566 11.9639 25.2578 23.7783 38.1836 35.3877c8.41113 7.55273 39.667 1.5918 28.0859 -9.35938
c-18.4707 -17.4717 -36.5869 -35.3125 -54.4932 -53.3633c18.9004 0.364258 37.8281 0.112305 56.7754 -0.868164z" />
    <glyph glyph-name="plus" unicode="+" horiz-adv-x="358" 
d="M292.435 337.244c21.4072 0.228516 21.1943 -19.7695 -0.00195312 -19.9893c-23.9785 -0.256836 -47.8916 -1.33008 -71.7393 -3.04785c0.0742188 -9.95703 0.19043 -19.9043 0.391602 -29.8564c0.69043 -33.8369 1.48828 -67.6885 2.03418 -101.53
c0.485352 -30.1221 4.20996 -69.3037 -11.8799 -95.9805c-8.18262 -13.5693 -37.3711 -15.4834 -47.7246 -3.55664c-22.0186 25.3701 -26.6816 62.5967 -31.3682 94.9268c-4.85938 33.543 -7.9541 67.6748 -9.63965 101.521
c-0.382812 7.69727 -0.71875 15.3945 -1.03125 23.0918c-17.3135 -2.74512 -34.5752 -5.84473 -51.7852 -9.37402c-16.3516 -3.35156 -30.1221 13.5088 -8.74316 18.0791c19.8711 4.24805 39.8262 7.94531 59.8369 11.1475
c-1.71289 55.0527 -1.19043 110.026 3.98633 164.99c3.58008 38.0146 97.166 37.9824 97.0771 0c-0.117188 -51.1553 -1.2793 -102.329 -1.24707 -153.489c23.8809 1.72266 47.8223 2.81055 71.834 3.06738z" />
    <glyph glyph-name="comma" unicode="," horiz-adv-x="236" 
d="M115.032 99.8838c12.6221 21.3506 81.127 19.3145 69.3457 -10.8955c-20.7949 -53.335 -56.6396 -114.946 -105.055 -147.28c-6.60547 -4.41113 -29.3291 -4.82227 -29.3242 6.92188c0.0136719 26.0137 13.7041 50.1562 24.6318 73.0898
c12.6035 26.4531 25.4873 52.9385 40.4014 78.1641z" />
    <glyph glyph-name="hyphen" unicode="-" horiz-adv-x="522" 
d="M453.787 289.758c7.9209 -0.667969 19.6904 -6.32422 18.0518 -15.7578c-1.75 -10.0781 -16.7666 -12.0391 -24.749 -12.4541c-126.751 -6.62793 -254.8 6.74512 -381.453 10.6104c-20.8145 0.634766 -20.8799 19.6045 -0.000976562 19.5811
c128.987 -0.149414 259.402 8.85938 388.151 -1.97949z" />
    <glyph glyph-name="period" unicode="." horiz-adv-x="162" 
d="M86.2568 35.0469c8.9668 -0.686523 31.6621 -7.2002 24.7393 -21.1621c-6.19434 -12.501 -12.4443 -26.8037 -24.7998 -34.3145c-9.63867 -5.86328 -25.9062 -4.5332 -32.6699 4.91406c-6.34375 8.85938 -2.48828 24.0303 -0.980469 33.9023
c2.24023 14.7041 21.7988 17.5752 33.7109 16.6602z" />
    <glyph glyph-name="slash" unicode="/" horiz-adv-x="684" 
d="M546.85 805.109c16.3838 20.2168 101.625 15.2734 84.3867 -20.2812c-36.2695 -74.7842 -83.6201 -144.308 -125.234 -216.197c-73.626 -127.19 -140.713 -257.686 -203.972 -390.295c-64.3184 -134.826 -115.479 -277.089 -187.956 -407.737
c-9.01367 -16.249 -68.3799 -20.1465 -63.8242 4.9248c14.9834 82.4111 43.9521 160.817 75.3066 238.285c56.0469 138.491 119.474 273.747 188.927 406.011c34.4111 65.5322 70.2607 130.312 107.515 194.276c38.2676 65.6953 76.875 131.839 124.852 191.014z" />
    <glyph glyph-name="zero" unicode="0" horiz-adv-x="540" 
d="M407.535 658.335c42.6318 -55.3193 62.0176 -123.055 72.7539 -191.205c12.1084 -76.8887 11.7207 -154.627 5.01758 -232.011c-5.87695 -67.8662 -17.1074 -136.881 -42.958 -200.257c-24.418 -59.8516 -65.8779 -130.28 -130.313 -152.826
c-72.585 -25.3975 -146.048 11.3389 -184.675 73.6172c-37.7354 60.8457 -58.3955 135.041 -69.1084 205.283c-23.624 154.866 6.75488 313.237 49.5361 462.039c3.17383 11.0537 17.4482 17.4482 33.9863 19.5488c19.7969 33.8564 47.0342 62.8389 82.9062 78.4902
c69.1875 30.1914 139.663 -6.6377 182.854 -62.6797zM388.607 254.957c9.91406 119.054 10.8506 249.554 -36.0244 361.629c-10.0312 23.9834 -23.3809 47.2246 -41.8418 65.7139c-24.7021 24.7441 -47.9854 33.9629 -79.6191 14.5869
c-22.2988 -13.6582 -40.3164 -33.4824 -54.6279 -56.0938c16.3652 -3.93457 28.4834 -12.4209 25.9209 -25.1172c-28.6279 -141.772 -64.6123 -283.891 -53.6055 -429.775c4.60254 -61.0039 16.5752 -122.689 42.1455 -178.587
c11.6279 -25.4121 25.7998 -53.7041 48.8027 -70.7695c19.7637 -14.6621 27.0361 -9.88184 43.2803 7.03906c76.46 79.6572 96.8027 206.128 105.569 311.374z" />
    <glyph glyph-name="one" unicode="1" horiz-adv-x="437" 
d="M370.173 -74.1553c22.5596 0.881836 22.2129 -20.3564 -0.00585938 -21.0469c-28.3994 -0.873047 -56.6357 -3.17383 -84.6846 -6.7168c-0.125977 -1.17676 -0.214844 -2.35352 -0.350586 -3.52539c-4.17773 -35.8682 -77.6689 -41.1289 -100.136 -14.9893
c-18.0693 -4.39746 -36.0361 -9.28906 -53.8672 -14.7969c-12.8555 -3.97266 -37.5527 9.74609 -16.7852 16.3701c21.1641 6.74512 42.4961 12.7246 63.9727 17.9619c-2.94043 43.2246 2.26465 87.8125 5.61621 130.878c3.51465 45.1152 7.79492 90.207 12.7803 135.182
c9.65332 87.0977 21.1826 173.925 29.7432 261.153c4.4248 45.0635 8.13086 90.1504 12.1963 135.237c3.55273 39.3779 8.8877 79.5078 8.86914 119.063c-0.00488281 9.3125 -0.308594 19.3955 -1.71387 28.6104c0.373047 9.78418 -4.66406 15.6377 -15.1152 17.5703
c-4.90625 -3.02441 -9.40137 -6.55762 -13.4814 -10.6094c-15.0068 -13.7559 -28.6182 -29.333 -42.6963 -44.0225c-31.4844 -32.8477 -62.6562 -65.9893 -93.4824 -99.458c-8.02441 -8.71484 -39.7803 -2.66504 -28.7178 9.56934
c31.4053 34.7285 63.1094 69.1914 95.3271 103.174c22.1494 23.3672 46.376 58.8945 80.9785 63.1934c26.9014 3.3418 47.9209 -14.0176 63.7266 -34.0703c21.6914 -27.5215 24.6133 -65.21 28.4268 -98.8467c8.97168 -79.0547 5.36816 -159.78 -0.112305 -238.947
c-5.61523 -81.1279 -12.9395 -162.152 -20.2451 -243.14c-3.51953 -39.0186 -6.69336 -78.0742 -9.09277 -117.182c-1.9834 -32.2686 -1.79688 -65.0137 -4.00488 -97.3711c27.4473 3.41211 55.0762 5.6709 82.8545 6.75879z" />
    <glyph glyph-name="two" unicode="2" horiz-adv-x="598" 
d="M543.662 -88.4766c10.9746 -8.9248 -2.01562 -19.7773 -10.4736 -22.7881c-13.0098 -4.6123 -29.1797 -2.7168 -39.9668 5.97461c-52.3223 42.1699 -122.069 42.0205 -183.979 24.5391c-20.5898 -5.81152 -40.6758 -13.1729 -60.4209 -21.3652
c-2.86133 -3.37012 -5.69922 -6.75879 -8.61621 -10.0781c-39.2617 -44.6523 -81.5195 -77.7568 -142.93 -81.4541c-24.0674 -1.45215 -70.3916 25.4111 -33.5342 46.1416c11.8652 6.6748 24.2168 13.5137 36.9512 20.3613c25.8643 19.8945 47.8965 49.5078 66.5869 72.6514
c30.084 37.2539 56.6113 77.4209 81.6309 118.209c44.8721 73.1406 84.1289 150.146 116.832 229.477c34.5518 83.7979 63.959 171.255 66.6709 262.638c1.00781 33.9912 -1.74121 72.3193 -21.1875 101.442c-22.084 33.0625 -61.2197 35.999 -95.8223 22.2754
c-39.0283 -15.4785 -71.7637 -51.9951 -91.9805 -87.8672c-10.4658 -18.5684 -18.5361 -38.6777 -22.6016 -59.6406c-2.19824 -11.3477 -8.74219 -39.8262 -0.848633 -51.7568c9.1582 -4.15918 12.4961 -13.6816 -3.25293 -16.0898
c-51.2207 -7.83691 -31.6152 71.918 -22.4199 98.9678c16.6787 49.0635 51.6553 92.4277 94.8047 120.822c78.5693 51.7012 195.354 44.3311 238.159 -49.8662c43.4014 -95.5049 8.07031 -219.838 -24.3574 -313.046c-36.5029 -104.92 -84.9697 -205.111 -144.443 -298.922
c-15.0303 -23.6992 -30.6494 -47.1553 -47.1592 -69.9531c88.167 22.3965 177.846 19.9268 252.358 -40.6719z" />
    <glyph glyph-name="three" unicode="3" horiz-adv-x="575" 
d="M379.08 366.683c54.7539 -17.2715 100.67 -56.8262 123.916 -113.568c28.8564 -70.4424 27.918 -156.149 4.49023 -227.913c-23.335 -71.4795 -81.4688 -132.591 -148.177 -166.064c-73.4766 -36.8672 -170.045 -45.4746 -239.857 4.67676
c-62.4932 44.8955 -76.002 127.026 -66.8721 198.781c3.52441 27.6709 71.8896 27.8672 71.1846 0c-1.61523 -63.8232 20.7998 -156.882 94.6543 -173.794c59.4775 -13.6211 125.616 44.8438 157.904 88.4932c44.2979 59.8838 53.8389 141.254 42.5381 213.261
c-8.81738 56.1641 -46.165 133.165 -113 129.464c-16.5713 -0.915039 -71.4189 18.7041 -42.6465 42.3613c48.6396 39.9893 85.25 91.0459 105.107 151.047c16.2627 49.1338 35.3779 132.786 -16.4912 167.852c-51.1641 34.5938 -128.226 -1.86719 -167.622 -38.6543
c-20.3477 -19.0029 -36.8721 -41.7588 -48.042 -67.2969c-8.91602 -20.3799 -27.8115 -70.3164 -0.612305 -84.6562c16.6455 -8.77539 -12.7715 -18.4238 -22.999 -13.1113c-53.041 27.5498 -6.45117 115.707 17.8779 147.808
c33.6455 44.3965 83.9883 75.4424 138.831 85.3613c53.4238 9.66211 119.437 -0.0517578 154.87 -45.0361c37.791 -47.9766 34.1084 -115.633 19.7871 -171.53c-11.9639 -46.707 -34.4072 -90.2812 -64.8418 -127.479z" />
    <glyph glyph-name="four" unicode="4" horiz-adv-x="502" 
d="M348.283 684.671c5.83008 40.0312 104.984 40.6631 103.645 0.000976562c-4.52344 -136.946 -14.4609 -273.295 -13.1543 -410.432c0.648438 -68.4961 2.87988 -136.848 5.07422 -205.302c2.10059 -65.4902 12.0576 -136.465 -6.26855 -200.14
c-5.66211 -19.6748 -50.1143 -15.2686 -58.0918 0c-31.6719 60.6123 -34.7529 137.558 -40.6953 204.695c-4.1123 46.4502 -6.71191 93.1943 -8.2334 139.905c-43.752 -29.1504 -89.9502 -54.9121 -142.076 -65.1299c-29.7246 -5.83008 -62.0498 -8.1543 -89.1191 8.07129
c-26.0186 15.5957 -36.1152 42.0254 -41.791 70.2754c-15.5117 77.2441 -5.08789 158.353 12.3047 234.327c17.8174 77.832 43.085 152.924 72.8564 226.924c13.9941 34.7803 113.158 27.3535 99.2344 -15.5957c-40.2695 -124.226 -85.5156 -244.857 -99.4121 -375.618
c-3.12793 -29.4219 -6.15234 -59.8848 -4.37402 -89.4883c1.92773 -32.166 15.2783 -44.6055 48.2852 -37.1787c52.5322 11.8193 99.1357 42.1934 143.275 72.5303c-0.243164 10.5771 -0.453125 21.1543 -0.597656 31.7227
c-1.84375 136.521 -0.569336 275.124 19.1387 410.432z" />
    <glyph glyph-name="five" unicode="5" horiz-adv-x="554" 
d="M322.715 705.695c51.1455 13.21 148.517 29.7393 180.286 -28.1143c7.31934 -13.3271 -28.9971 -17.7334 -35.5879 -5.5918c-21.9814 40.4795 -95.0566 24.165 -130.733 14.8857c-38.1367 -9.91406 -74.8262 -24.6133 -112.827 -34.9717
c-5.94727 -44.0879 -22.8213 -87.2334 -36.54 -128.903c-9.55957 -29.0293 -18.6338 -58.2129 -26.0459 -87.8721c-3.85059 -15.3994 -8.30859 -31.7744 -9.56445 -47.6357c-0.046875 -0.709961 -0.0888672 -1.42383 -0.135742 -2.13379
c26.0186 4.18262 50.9541 12.123 77.752 13.3604c23.8672 1.10645 47.8555 -1.38574 71.083 -6.81445c45.2783 -10.5869 88.6797 -32.834 116.99 -70.6533c30.9336 -41.3203 36.1758 -93.8711 32.9365 -143.99c-3.50977 -54.3203 -16.1738 -109.938 -38.6357 -159.632
c-19.4092 -42.9443 -48.5371 -82.5928 -89.6475 -106.819c-46.2773 -27.2744 -105.605 -32.5488 -155.985 -13.8496c-42.6455 15.8242 -76.833 48.8496 -87.9521 93.5957c-12.2529 49.3066 1.79297 99.5703 24.7266 143.346
c7.82812 14.9463 51.0576 13.6162 45.7832 -7.19336c-12.248 -48.3311 -22.8115 -109.382 10.2188 -152.214c21.7705 -28.2266 56.1396 -43.9385 87.6855 -23.9551c70.6572 44.751 95.0938 154.072 99.4072 230.957c2.34766 41.8291 0.461914 90.1045 -29.3281 122.859
c-20.4922 22.5322 -50.7959 35.3311 -77.6738 35.2471c-17.29 -0.0556641 -38.2676 -6.66113 -58.1807 -10.6797c-24.5342 -4.95215 -50.2168 -6.91699 -74.9424 -2.31445c-23.9043 4.45312 -49.0312 16.6875 -54.6416 42.3047
c-4.29883 19.6514 4.33691 42.085 9.58789 60.9756c13.1963 47.458 32.7734 92.834 51.7109 138.21c10.3252 24.7393 20.6367 49.6191 31.8027 74.0791c-10.1943 1.15723 -20.2305 3.60352 -29.8838 7.84668c-25.3555 11.1426 -44.4941 34.7061 -41.1289 63.3857
c1.5166 12.9258 33.6455 12.6689 32.8936 0c-1.18555 -20.0674 9.55957 -37.8193 27.7363 -46.6787c6.18066 -3.01074 12.7393 -4.60254 19.4658 -5.24219c7.73438 16.0059 15.9219 31.7832 24.8936 47.1172
c0.0322266 -0.0185547 0.0605469 -0.0322266 0.0927734 -0.0507812c0.676758 1.05957 1.42871 2.1377 2.30176 3.28613c8.46289 11.1328 42.4072 9.59277 44.2646 -6.83301c1.12988 -10.0078 1.35352 -19.9736 0.980469 -29.9023
c32.3389 10.0029 64.0244 22.1162 96.835 30.5889z" />
    <glyph glyph-name="six" unicode="6" horiz-adv-x="520" 
d="M325.412 708.444c54.1475 6.55859 120.162 -5.63965 144.08 -61.0889c5.60156 -12.9863 -26.1074 -15.4277 -31.3682 -4.92969c-15.1289 30.1875 -48.4951 48.2285 -82.1924 45.9043c-28.5303 -1.96973 -53.0322 -19.0771 -73.0664 -38.2666
c-40.5967 -38.8789 -66.1816 -91.6729 -85.5391 -143.683c-37.7393 -101.386 -56.4805 -217.027 -53.7168 -325.042c0.443359 -17.4248 1.5918 -34.8965 3.62695 -52.2656c26.957 21.4678 57.5176 38.5244 89.8848 50.2451c63.5439 23.0078 151.085 19.3486 190.309 -44.167
c30.7607 -49.8105 23.2178 -119.03 -5.78809 -167.692c-32.7734 -54.9785 -93.8057 -90.0156 -158.092 -88.9658c-162.438 2.64648 -212.846 176.902 -213.541 311.426c-0.387695 74.8164 12.8359 149.535 30.3867 222.027c16.5293 68.2676 42.5195 134.57 84.1289 191.537
c39.0322 53.4424 93.3105 96.7832 160.888 104.961zM229.461 135.08c-27.3066 -15.2217 -51.5879 -35.1172 -73.2285 -57.6162c4.5791 -19.3438 10.5586 -38.3369 18.2744 -56.7334c16.3516 -38.9814 45.9502 -89.2959 90.6123 -100.102
c46.3057 -11.2031 90.5566 40.1992 107.464 77.1035c18.2979 39.9336 22.2939 94.5801 -3.77148 132.297c-33.7725 48.8682 -96.6631 28.8428 -139.351 5.05078z" />
    <glyph glyph-name="seven" unicode="7" horiz-adv-x="497" 
d="M424.477 321.497c18.6807 3.08594 34.7764 -16.5947 10.0039 -20.6836c-14.4141 -2.37598 -28.8379 -4.70996 -43.2666 -7.02051c-24.6973 -135.051 -56.6396 -269.425 -91.5137 -401.712c-5.18164 -19.6611 -41.334 -22.168 -56.6582 -21.085
c-11.4502 0.807617 -49.3115 9.25684 -44.7744 28.9082c29.165 126.289 62.666 251.616 91.6904 377.942c-12.6777 -1.98828 -25.3506 -3.97168 -38.0195 -5.97461c-16.6455 -2.63281 -31.1016 14.666 -8.93848 18.4795c17.2852 2.97852 34.5703 5.97559 51.8506 8.98145
c12.7764 56.6963 24.5674 113.616 34.5244 170.938c7.93555 45.6846 15.9785 91.7471 18.252 138.141c1.75 35.8076 0.834961 91.3691 -36.8486 109.803c-37.1797 18.1855 -85.2725 -1.65332 -119.408 -17.7012c-40.1064 -18.8535 -76.9775 -43.7705 -113.261 -69.0098
c-9.96582 -6.93164 -39.3545 1.89062 -23.5166 13.4062c65.1357 47.3506 138.02 97.376 220.692 104.677c30.0234 2.64648 61.8398 -1.32129 88.083 -17.0566c30.957 -18.5596 46.9961 -50.1514 54.9365 -84.334c18.293 -78.7559 3.07617 -166.876 -8.8457 -245.65
c-4.34082 -28.665 -9.08789 -57.3164 -14.1436 -85.9443c9.71875 1.63867 19.4375 3.29102 29.1611 4.89648z" />
    <glyph glyph-name="eight" unicode="8" horiz-adv-x="476" 
d="M293.963 306.766c47.5098 -47.6729 96.5029 -97.8955 119.104 -162.644c23.2695 -66.6709 16.6836 -138.574 -29.3691 -193.949c-85.5527 -102.866 -250.385 -78.5557 -305.471 41.6934c-49.876 108.878 -5.97461 246.347 61.8164 345.245
c-51.3701 57.6621 -91.9854 121.075 -89.9736 204.756c1.66211 69.3271 35.8076 139.378 93.2646 179.046c50.2266 34.6729 129.179 45.582 174.891 -2.7959c50.1562 -53.0781 35.6816 -133.566 25.6504 -198.642c-10.9365 -70.9658 -25.0195 -144.741 -49.9131 -212.71z
M195.634 687.373c-46.8887 -51.1504 -50.2861 -132.184 -30.4854 -195.41c18.1016 -57.8066 51.2012 -102.973 90.5508 -145.693c19.5635 74.5322 37.502 148.303 44.8682 226.102c3.7627 39.7559 6.44238 87.377 -20.3047 120.472
c-26.7979 33.1562 -58.7031 22.8125 -84.6289 -5.46973zM329.761 -11.3164c21.0332 68.7012 -5.41992 139.747 -47.0195 194.795c-33.459 44.2705 -77.0518 84.4053 -117.457 126.458c-30.1494 -51.4814 -52.8311 -107.31 -62.1387 -166.479
c-12.4258 -78.9854 3.4541 -169.421 75.2598 -215.769c28.124 -18.1533 61.2568 -26.6445 92.625 -11.7168c29.4775 14.0273 49.3389 42.0205 58.7305 72.7119z" />
    <glyph glyph-name="nine" unicode="9" horiz-adv-x="498" 
d="M443.667 283.422c1.06934 -66.3486 2.27051 -132.694 3.40918 -199.039c0.564453 -32.3945 0.876953 -64.7666 0.433594 -97.166c-0.429688 -31.5127 1.15234 -68.5664 -12.6787 -97.5723c-9.80762 -20.5713 -53.7559 -18.251 -64.4219 0
c-16.2158 27.7549 -18.1719 66.1436 -21.2617 97.5723c-3.32812 33.8789 -5.5918 67.8008 -7.37988 101.792c-3.40332 64.79 -5.73242 129.547 -7.23047 194.407c-1.62012 70.2139 -3.88379 140.997 -3.71582 211.688c-10.1289 -42.9863 -21.6582 -85.585 -37.0859 -127.063
c-26.1396 -70.293 -69.1592 -174.209 -162.74 -146.99c-46.875 13.6348 -63.7725 50.8701 -73.5518 95.416c-11.3428 51.6689 -9.00879 104.136 2.18457 155.637c19.1289 88.0127 58.0547 175.638 141.908 219.25c43.8223 22.7881 99.6592 24.5947 144.718 4.93359
c22.0371 22.3965 87.1211 17.6025 89.5996 -14.6621c10.1572 -132.161 5.67578 -265.714 7.81348 -398.202zM212.693 272.335c74.0186 111.361 90.5576 251.586 120.735 380.349c-15.0215 11.4551 -31.7422 19.3906 -48.8174 16.8047
c-31.293 -4.73828 -56.873 -42.1836 -72.3047 -66.6621c-38.6406 -61.2891 -59.8281 -132.203 -67.1562 -204c-3.78613 -37.0957 -5.35938 -77.9258 1.85254 -114.736c1.8623 -9.53223 6.47852 -39.4766 15.3613 -45.167c17.6348 -11.3008 42.4961 21.6309 50.3291 33.4121z
" />
    <glyph glyph-name="colon" unicode=":" horiz-adv-x="173" 
d="M87.3701 458.091c-6.52148 0 -27.3311 3.59375 -25.0205 14.2598c1.88574 8.71484 3.93066 17.3555 6.15234 25.9912c2.3291 9.07422 6.05859 18.0557 7.9209 27.167c2.9502 14.4287 39.458 14.7227 38.002 0c-0.873047 -8.83203 0.0556641 -17.6914 -0.359375 -26.5791
c-0.415039 -8.88281 -0.914062 -17.7188 -1.67969 -26.5781c-0.961914 -11.1426 -16.1045 -14.2607 -25.0156 -14.2607zM108.969 228.931c5.40527 -1.75488 14.7734 -6.74121 13.999 -13.916c-2.07227 -19.3438 -7.19727 -38.585 -12.1914 -57.3643
c-3.47266 -13.0557 -28.791 -13.9609 -38.3975 -12.4248c-11.4453 1.83008 -25.3887 8.39746 -21.8037 21.8877c3.32324 12.4863 7.1416 24.791 11.0576 37.1045c5.01758 15.7773 11.1699 24.5205 28.6553 26.7285c6.57227 0.831055 12.4307 0.00976562 18.6807 -2.01562z
" />
    <glyph glyph-name="semicolon" unicode=";" horiz-adv-x="225" 
d="M163.175 437.174c-6.6748 -16.9395 -57.6113 -17.3428 -56.6641 4.37207c0.705078 16.0859 5.28906 32.2646 10.1016 47.6455c5.3584 17.1357 9.92871 29.2393 29.6035 31.6338c5.73242 0.695312 10.5918 -0.359375 16.0625 -1.89941
c5.85352 -1.64746 12.1367 -5.98828 12.6221 -12.542c1.64355 -22.1299 -3.64551 -48.6992 -11.7256 -69.21zM91.7139 218.23c10.7363 27.4893 89.1885 19.3389 76.3799 -12.001c-10.4092 -25.4629 -21.9717 -50.7725 -35.5273 -74.7275
c-12.6875 -22.4248 -25.2949 -45.1572 -50.4082 -53.9512c-6.94141 -2.43164 -20.1328 -2.55762 -25.4961 3.80957c-14.7412 17.4951 -1.45605 41.7305 5.7373 61.167c9.38281 25.3555 19.4795 50.5156 29.3145 75.7031z" />
    <glyph glyph-name="less" unicode="&#x3c;" horiz-adv-x="399" 
d="M337.711 180.661c15.0117 -9.1582 14.7725 -23.6279 -0.000976562 -32.8008c-16.6973 -10.3721 -40.6201 -8.36914 -57.5547 0c-49.9971 24.7119 -98.165 52.6631 -148.886 76.0254c-30.2295 13.9238 -98.2871 30.8076 -77.333 78.3174
c9.67676 21.9482 34.6035 34.9531 53.3311 48.0791c22.1396 15.5117 44.0039 31.3643 65.4346 47.8418c43.957 33.7949 91.9756 64.626 133.066 101.685c8.47656 7.64551 41.2588 2.62305 29.3467 -9.7793c-30.668 -31.9375 -56.8359 -66.8154 -89.8662 -96.7969
c-33.5107 -30.416 -70.2607 -56.4814 -105.172 -85.0908c-6.29688 -5.16309 -18.6201 -13.6914 -15.9268 -23.7695c2.11035 -7.88379 14.2422 -9.43848 20.9082 -12.2021c21.8086 -9.05078 43.4297 -18.5312 64.9766 -28.1934
c43.1455 -19.3486 87.2568 -38.6553 127.676 -63.3154z" />
    <glyph glyph-name="equal" unicode="=" horiz-adv-x="459" 
d="M130.843 270.476c-18.0596 0.705078 -47.0488 -1.14453 -60.3428 13.5596c-2.76758 3.06641 -3.51465 5.78809 -2.22656 9.70898c5.99805 18.2275 45.0449 21.3926 60.542 23.6562c26.4805 3.86523 53.3623 5.49902 80.0723 6.93652
c55.1279 2.95898 113.351 7.65527 168.044 -1.45605c11.9922 -1.99805 32.4238 -8.97168 32.4238 -24.2725c0 -14.9277 -20.501 -22.9287 -32.4229 -24.2734c-53.9561 -6.08203 -109.195 -1.92773 -163.445 -2.96875
c-27.498 -0.527344 -55.1504 -1.95996 -82.6445 -0.890625zM360.948 221.126c14.1807 -0.854492 39.6523 -4.16211 43.373 -21.8252c3.50098 -16.6367 -18.167 -26.2197 -31.6338 -27.6201c-50.6602 -5.27441 -102.151 -4.70508 -153.026 -7.20703
c-48.0039 -2.35742 -101.129 -10.6104 -148.545 -0.649414c-11.8232 2.4834 -33.043 17.6211 -12.5654 27.1338c43.7656 20.3281 97.0449 20.4219 144.475 24.1562c51.9346 4.08887 105.876 9.13965 157.923 6.01172z" />
    <glyph glyph-name="greater" unicode="&#x3e;" horiz-adv-x="439" 
d="M384.933 336.334c10.4795 -13.8447 0.267578 -23.5996 -13.3389 -28.9863c-92.6758 -36.6709 -175.619 -93.4092 -244.661 -165.141c-13.0977 -13.6064 -40.2178 -14.3623 -56.6816 -8.47168c-13.4385 4.80762 -28.5439 18.7646 -14.8623 32.3057
c71.3809 70.6484 155.202 126.229 247.337 165.289c-6.29199 3.47754 -13.0889 6.37598 -18.3359 9.27441c-9.76074 5.3916 -19.4648 10.8945 -29.1035 16.5049c-20.4355 11.8984 -40.4658 24.3574 -60.1035 37.5352c-39.0977 26.2383 -73.0654 54.8193 -107.113 87.1074
c-13.0938 12.417 20.2539 17.1455 28.124 12.3701c46.0811 -27.9795 93.3477 -55.0762 140.349 -81.5664c23.6006 -13.3037 47.248 -26.5137 71.3252 -38.9395c20.1143 -10.3809 43.001 -18.7041 57.0654 -37.2822z" />
    <glyph glyph-name="question" unicode="?" horiz-adv-x="477" 
d="M287.672 884.183c110.143 -21.9062 144.634 -133.177 138.057 -232.603c-7.37012 -111.244 -55.0107 -219.474 -91.4531 -323.516c-18.3682 -52.4385 -36.2646 -105.34 -49.6006 -159.319c-6.60938 -26.752 -11.8047 -53.8867 -15.4639 -81.1982
c-3.67383 -27.4287 -3.41211 -55.3057 -7.80469 -82.5615c-6.35254 -39.4248 -94.9023 -39.7422 -100.724 0c-7.16016 48.8916 5.67676 103.921 16.5996 151.538c10.8623 47.3604 24.8701 93.8105 41.1045 139.598c30.042 84.7314 65.1025 167.735 92.1201 253.53
c24.4219 77.5703 48.6201 175.992 13.1816 253.982c-16.7061 36.7686 -53.2275 64.9766 -95.5 57.793c-42.2812 -7.18359 -80.0205 -43.4805 -103.551 -77.458c-22.2236 -32.0869 -37.1934 -70.0371 -40.0498 -109.107
c-1.4375 -19.6895 0.0566406 -39.9756 5.57422 -58.9834c3.6875 -12.6963 19.5859 -59.5566 40.7314 -50.1367c6.23633 2.77734 17.042 4.84961 23.0029 0c4.56055 -3.71582 7.07227 -9.89648 0 -13.1123c-47.332 -21.5283 -83.1113 14.6055 -96.2471 58.1377
c-14.125 46.7998 -7.78613 97.0449 11.6133 141.399c36.4883 83.4385 123.955 150.805 218.409 132.017zM236.531 -56.6562c9.97559 -10.7412 10.4463 -24.0205 10.75 -38.2764c0.307617 -14.4102 0.541016 -28.8242 0.708984 -43.2344
c0.345703 -29.249 -75.1572 -28.7168 -74.1025 0c0.896484 24.4082 1.2373 65.2334 22.2754 81.5107c10.1475 7.85156 30.6445 10.4658 40.3682 0z" />
    <glyph glyph-name="at" unicode="@" horiz-adv-x="839" 
d="M414.406 157.756c-3.17383 50.6133 -1.86719 102.837 3.88379 153.604c-11.7021 -20.5156 -24.1934 -40.5176 -37.5811 -59.8008c-16.0205 -23.083 -36.0176 -39.0381 -64.8975 -40.8535c-30.9482 -1.94629 -58.2969 15.6748 -70.5127 43.6445
c-30.2754 69.3223 -16.7197 162.824 9.64453 231.063c25.6826 66.4795 82.9336 133.879 159.869 136.105c59.0762 1.70801 72.8506 -52.7334 76.6221 -104.327c21.0801 7.40332 54.418 6.12402 52.1963 -15.0723c-5.80176 -55.3232 -18.3447 -109.718 -23.4043 -165.214
c-5.2002 -56.9941 -5.52734 -113.466 -5.04199 -170.629c0.163086 -19.6895 -1.56836 -41.9834 6.2041 -60.5195c1.2793 -3.05273 2.57227 -7.88867 5.43359 -9.93359c0.0888672 -0.0185547 0.154297 -0.0283203 0.251953 -0.0517578
c7.51074 -1.65723 20.7539 5.625 27.1816 8.71973c42.5566 20.4775 73.6445 58.9404 97.502 98.6172c47.8691 79.6104 78.7051 179.102 85.8096 271.357c6.91309 89.7119 -9.02734 183.167 -74.1904 249.814c-64.8975 66.3818 -165.56 83.3398 -252.625 57.6758
c-88.3906 -26.0518 -163.282 -89.0488 -215.969 -163.352c-103.893 -146.52 -141.805 -366.675 -64.2852 -532.884c40.0498 -85.875 114.101 -149.988 208.812 -165.929c97.5586 -16.417 194.935 19.5957 272.421 77.748c7.375 5.53125 18.1855 7.51074 26.9941 4.0332
c5.3584 -2.11426 14.7598 -9.61133 7.07617 -15.3857c-94.6592 -71.1104 -213.899 -110.596 -332.127 -85.3008c-116.501 24.9219 -202.828 111.184 -239.074 223.357c-63.8984 197.74 0.0234375 442.341 153.055 582.745c74.5693 68.417 173.005 113.826 275.6 109.452
c99.2344 -4.22949 191.92 -52.5742 241.661 -140.27c55.1602 -97.2549 52.9238 -209.046 24.8281 -314.269c-25.127 -94.0996 -64.0195 -194.897 -139.625 -260.117c-37.292 -32.1709 -86.001 -58.4141 -136.61 -51.0527
c-58.5537 8.51465 -75.8203 54.7129 -79.1016 107.021zM376.251 301.861c25.1924 42.2441 47.1455 86.2432 66.1201 131.526c4.78418 15.0117 10.4326 29.7158 17.252 43.9619c-0.957031 34.1592 -1.58691 74.835 -19.8896 103.062
c-12.7666 19.6934 -21.748 6.29199 -31.9189 -7.4502c-8.79883 -11.8887 -16.3984 -24.5615 -23.3672 -37.585c-33.5527 -62.708 -53.4941 -129.748 -56.958 -200.896c-0.87793 -18.0039 -0.74707 -36.1387 0.112305 -54.1426
c0.602539 -12.5752 4.91992 -26.8965 4.92969 -39.2715c4.37402 3.86523 9.7793 8.50977 10.9746 9.99414c12.4678 15.5117 22.5879 33.7676 32.7451 50.8008z" />
    <glyph glyph-name="A" unicode="A" horiz-adv-x="772" 
d="M713.549 -245.028c-17.4766 -65.3271 -31.2949 -139.398 -88.6113 -182.506c-51.7432 -38.9209 -124.65 -33.0859 -170.11 13.084c-44.6152 45.3154 -54.8799 112.089 -59.5195 172.71c-5.5498 72.5156 -6.04883 145.101 -4.33105 217.784
c3.37012 142.547 16.874 284.786 26.4336 427.007c-9.19531 -2.89453 -17.8779 -5.94727 -25.5938 -8.70605c-52.2012 -18.6621 -101.736 -43.7148 -152.317 -66.209c-23.6191 -10.5078 -55.6963 -24.2031 -88.8848 -32.8994
c-7.56641 -133.235 -13.9941 -266.666 -38.7852 -397.553c-12.2158 -64.5049 -28.4736 -128.721 -50.4688 -190.621c-19.1523 -53.8955 -48.7695 -108.174 -110.661 -117.804c-57.8018 -9 -110.777 25.8271 -133.837 77.7295
c-26.6211 59.9209 -19.0361 124.179 12.5371 180.511c8.39258 14.9746 54.0723 14.0088 47.542 -7.47266c-18.2607 -60.043 -8.77539 -139.808 30.8037 -190.08c7.15137 -9.0791 18.0977 -21.7197 29.4639 -25.459c15.4697 -5.08789 31.1729 6.76367 42.1328 16.7158
c27.3584 24.8467 39.0654 62.2686 50.8428 96.1289c47.9619 137.917 63.6416 284.964 74.126 429.831c2.9082 40.1992 5.3584 80.4502 7.8418 120.696c-45.5586 -4.9668 -87.873 5.72266 -107.618 53.8389c-5.8584 14.2793 29.4775 17.6025 34.5332 5.42871
c14.377 -34.6309 43.4766 -41.8096 74.4014 -38.0801c5.20898 83.5547 10.9316 167.072 21.5928 250.142c14.041 109.4 29.7441 238.154 107.025 323.376c34.1221 37.6279 83.7461 61.7139 135.293 55.2119c55.4541 -6.99707 98.707 -49.4424 117.635 -100.373
c23.0732 -62.0869 23.1758 -133.029 25.1875 -198.431c2.12402 -68.9912 0.886719 -137.88 -1.84375 -206.829c27.6016 -7.76758 52.0469 -24.9316 61.1162 -53.7607c5.07422 -16.1279 -32.8799 -19.0732 -36.9922 -5.81641
c-5.11621 16.4873 -14.041 27.167 -25.2812 33.6738c-5.79297 -128.348 -16.4639 -256.42 -21.4912 -384.81c-2.72559 -69.6123 -3.95312 -139.089 -3.77539 -208.752c0.0888672 -34.8691 1.86719 -69.6494 2.55371 -104.49
c0.550781 -28.082 1.21875 -55.6035 12.207 -81.9395c10.1338 -24.2871 30.0098 -51.8691 59.6504 -46.3613c30.0801 5.58789 51.9814 31.1113 65.9756 56.4531c31.0459 56.2197 42.7109 124.917 58.624 186.552c35.541 137.665 64.8975 276.692 97.1387 415.123
c3.46387 14.8623 40.7744 13.5508 38.002 0c-33.1514 -161.854 -69.8359 -323.427 -112.537 -483.044zM330.577 396.11c27.9795 11.8428 57.8955 24.0947 88.4512 32.0908c4.27148 67.1426 7.55273 134.43 8.94336 201.688
c0.8125 39.3125 0.817383 78.6855 0.607422 117.998c-0.167969 31.0879 0.238281 64.4814 -8.54688 94.5703c-8.06152 27.6104 -24.4688 59.9863 -53.5166 70.251c-29.0107 10.2549 -60.3232 -12.0244 -80.5215 -31.083
c-47.0059 -44.3496 -70.4619 -109.719 -85.3154 -171.078c-31.1436 -128.655 -41.0537 -260.354 -48.751 -392.413c11.002 3.61719 21.5469 7.7627 30.9951 11.6553c49.8994 20.5615 97.9551 45.2871 147.654 66.3203z" />
    <glyph glyph-name="A" unicode="&#xc5;" horiz-adv-x="772" 
d="M713.549 -245.028c-17.4766 -65.3271 -31.2949 -139.398 -88.6113 -182.506c-51.7432 -38.9209 -124.65 -33.0859 -170.11 13.084c-44.6152 45.3154 -54.8799 112.089 -59.5195 172.71c-5.5498 72.5156 -6.04883 145.101 -4.33105 217.784
c3.37012 142.547 16.874 284.786 26.4336 427.007c-9.19531 -2.89453 -17.8779 -5.94727 -25.5938 -8.70605c-52.2012 -18.6621 -101.736 -43.7148 -152.317 -66.209c-23.6191 -10.5078 -55.6963 -24.2031 -88.8848 -32.8994
c-7.56641 -133.235 -13.9941 -266.666 -38.7852 -397.553c-12.2158 -64.5049 -28.4736 -128.721 -50.4688 -190.621c-19.1523 -53.8955 -48.7695 -108.174 -110.661 -117.804c-57.8018 -9 -110.777 25.8271 -133.837 77.7295
c-26.6211 59.9209 -19.0361 124.179 12.5371 180.511c8.39258 14.9746 54.0723 14.0088 47.542 -7.47266c-18.2607 -60.043 -8.77539 -139.808 30.8037 -190.08c7.15137 -9.0791 18.0977 -21.7197 29.4639 -25.459c15.4697 -5.08789 31.1729 6.76367 42.1328 16.7158
c27.3584 24.8467 39.0654 62.2686 50.8428 96.1289c47.9619 137.917 63.6416 284.964 74.126 429.831c2.9082 40.1992 5.3584 80.4502 7.8418 120.696c-45.5586 -4.9668 -87.873 5.72266 -107.618 53.8389c-5.8584 14.2793 29.4775 17.6025 34.5332 5.42871
c14.377 -34.6309 43.4766 -41.8096 74.4014 -38.0801c5.20898 83.5547 10.9316 167.072 21.5928 250.142c14.041 109.4 29.7441 238.154 107.025 323.376c34.1221 37.6279 83.7461 61.7139 135.293 55.2119c55.4541 -6.99707 98.707 -49.4424 117.635 -100.373
c23.0732 -62.0869 23.1758 -133.029 25.1875 -198.431c2.12402 -68.9912 0.886719 -137.88 -1.84375 -206.829c27.6016 -7.76758 52.0469 -24.9316 61.1162 -53.7607c5.07422 -16.1279 -32.8799 -19.0732 -36.9922 -5.81641
c-5.11621 16.4873 -14.041 27.167 -25.2812 33.6738c-5.79297 -128.348 -16.4639 -256.42 -21.4912 -384.81c-2.72559 -69.6123 -3.95312 -139.089 -3.77539 -208.752c0.0888672 -34.8691 1.86719 -69.6494 2.55371 -104.49
c0.550781 -28.082 1.21875 -55.6035 12.207 -81.9395c10.1338 -24.2871 30.0098 -51.8691 59.6504 -46.3613c30.0801 5.58789 51.9814 31.1113 65.9756 56.4531c31.0459 56.2197 42.7109 124.917 58.624 186.552c35.541 137.665 64.8975 276.692 97.1387 415.123
c3.46387 14.8623 40.7744 13.5508 38.002 0c-33.1514 -161.854 -69.8359 -323.427 -112.537 -483.044zM330.577 396.11c27.9795 11.8428 57.8955 24.0947 88.4512 32.0908c4.27148 67.1426 7.55273 134.43 8.94336 201.688
c0.8125 39.3125 0.817383 78.6855 0.607422 117.998c-0.167969 31.0879 0.238281 64.4814 -8.54688 94.5703c-8.06152 27.6104 -24.4688 59.9863 -53.5166 70.251c-29.0107 10.2549 -60.3232 -12.0244 -80.5215 -31.083
c-47.0059 -44.3496 -70.4619 -109.719 -85.3154 -171.078c-31.1436 -128.655 -41.0537 -260.354 -48.751 -392.413c11.002 3.61719 21.5469 7.7627 30.9951 11.6553c49.8994 20.5615 97.9551 45.2871 147.654 66.3203z" />
    <glyph glyph-name="A" unicode="&#xc4;" horiz-adv-x="772" 
d="M713.549 -245.028c-17.4766 -65.3271 -31.2949 -139.398 -88.6113 -182.506c-51.7432 -38.9209 -124.65 -33.0859 -170.11 13.084c-44.6152 45.3154 -54.8799 112.089 -59.5195 172.71c-5.5498 72.5156 -6.04883 145.101 -4.33105 217.784
c3.37012 142.547 16.874 284.786 26.4336 427.007c-9.19531 -2.89453 -17.8779 -5.94727 -25.5938 -8.70605c-52.2012 -18.6621 -101.736 -43.7148 -152.317 -66.209c-23.6191 -10.5078 -55.6963 -24.2031 -88.8848 -32.8994
c-7.56641 -133.235 -13.9941 -266.666 -38.7852 -397.553c-12.2158 -64.5049 -28.4736 -128.721 -50.4688 -190.621c-19.1523 -53.8955 -48.7695 -108.174 -110.661 -117.804c-57.8018 -9 -110.777 25.8271 -133.837 77.7295
c-26.6211 59.9209 -19.0361 124.179 12.5371 180.511c8.39258 14.9746 54.0723 14.0088 47.542 -7.47266c-18.2607 -60.043 -8.77539 -139.808 30.8037 -190.08c7.15137 -9.0791 18.0977 -21.7197 29.4639 -25.459c15.4697 -5.08789 31.1729 6.76367 42.1328 16.7158
c27.3584 24.8467 39.0654 62.2686 50.8428 96.1289c47.9619 137.917 63.6416 284.964 74.126 429.831c2.9082 40.1992 5.3584 80.4502 7.8418 120.696c-45.5586 -4.9668 -87.873 5.72266 -107.618 53.8389c-5.8584 14.2793 29.4775 17.6025 34.5332 5.42871
c14.377 -34.6309 43.4766 -41.8096 74.4014 -38.0801c5.20898 83.5547 10.9316 167.072 21.5928 250.142c14.041 109.4 29.7441 238.154 107.025 323.376c34.1221 37.6279 83.7461 61.7139 135.293 55.2119c55.4541 -6.99707 98.707 -49.4424 117.635 -100.373
c23.0732 -62.0869 23.1758 -133.029 25.1875 -198.431c2.12402 -68.9912 0.886719 -137.88 -1.84375 -206.829c27.6016 -7.76758 52.0469 -24.9316 61.1162 -53.7607c5.07422 -16.1279 -32.8799 -19.0732 -36.9922 -5.81641
c-5.11621 16.4873 -14.041 27.167 -25.2812 33.6738c-5.79297 -128.348 -16.4639 -256.42 -21.4912 -384.81c-2.72559 -69.6123 -3.95312 -139.089 -3.77539 -208.752c0.0888672 -34.8691 1.86719 -69.6494 2.55371 -104.49
c0.550781 -28.082 1.21875 -55.6035 12.207 -81.9395c10.1338 -24.2871 30.0098 -51.8691 59.6504 -46.3613c30.0801 5.58789 51.9814 31.1113 65.9756 56.4531c31.0459 56.2197 42.7109 124.917 58.624 186.552c35.541 137.665 64.8975 276.692 97.1387 415.123
c3.46387 14.8623 40.7744 13.5508 38.002 0c-33.1514 -161.854 -69.8359 -323.427 -112.537 -483.044zM330.577 396.11c27.9795 11.8428 57.8955 24.0947 88.4512 32.0908c4.27148 67.1426 7.55273 134.43 8.94336 201.688
c0.8125 39.3125 0.817383 78.6855 0.607422 117.998c-0.167969 31.0879 0.238281 64.4814 -8.54688 94.5703c-8.06152 27.6104 -24.4688 59.9863 -53.5166 70.251c-29.0107 10.2549 -60.3232 -12.0244 -80.5215 -31.083
c-47.0059 -44.3496 -70.4619 -109.719 -85.3154 -171.078c-31.1436 -128.655 -41.0537 -260.354 -48.751 -392.413c11.002 3.61719 21.5469 7.7627 30.9951 11.6553c49.8994 20.5615 97.9551 45.2871 147.654 66.3203z" />
    <glyph glyph-name="A" unicode="&#xc3;" horiz-adv-x="772" 
d="M713.549 -245.028c-17.4766 -65.3271 -31.2949 -139.398 -88.6113 -182.506c-51.7432 -38.9209 -124.65 -33.0859 -170.11 13.084c-44.6152 45.3154 -54.8799 112.089 -59.5195 172.71c-5.5498 72.5156 -6.04883 145.101 -4.33105 217.784
c3.37012 142.547 16.874 284.786 26.4336 427.007c-9.19531 -2.89453 -17.8779 -5.94727 -25.5938 -8.70605c-52.2012 -18.6621 -101.736 -43.7148 -152.317 -66.209c-23.6191 -10.5078 -55.6963 -24.2031 -88.8848 -32.8994
c-7.56641 -133.235 -13.9941 -266.666 -38.7852 -397.553c-12.2158 -64.5049 -28.4736 -128.721 -50.4688 -190.621c-19.1523 -53.8955 -48.7695 -108.174 -110.661 -117.804c-57.8018 -9 -110.777 25.8271 -133.837 77.7295
c-26.6211 59.9209 -19.0361 124.179 12.5371 180.511c8.39258 14.9746 54.0723 14.0088 47.542 -7.47266c-18.2607 -60.043 -8.77539 -139.808 30.8037 -190.08c7.15137 -9.0791 18.0977 -21.7197 29.4639 -25.459c15.4697 -5.08789 31.1729 6.76367 42.1328 16.7158
c27.3584 24.8467 39.0654 62.2686 50.8428 96.1289c47.9619 137.917 63.6416 284.964 74.126 429.831c2.9082 40.1992 5.3584 80.4502 7.8418 120.696c-45.5586 -4.9668 -87.873 5.72266 -107.618 53.8389c-5.8584 14.2793 29.4775 17.6025 34.5332 5.42871
c14.377 -34.6309 43.4766 -41.8096 74.4014 -38.0801c5.20898 83.5547 10.9316 167.072 21.5928 250.142c14.041 109.4 29.7441 238.154 107.025 323.376c34.1221 37.6279 83.7461 61.7139 135.293 55.2119c55.4541 -6.99707 98.707 -49.4424 117.635 -100.373
c23.0732 -62.0869 23.1758 -133.029 25.1875 -198.431c2.12402 -68.9912 0.886719 -137.88 -1.84375 -206.829c27.6016 -7.76758 52.0469 -24.9316 61.1162 -53.7607c5.07422 -16.1279 -32.8799 -19.0732 -36.9922 -5.81641
c-5.11621 16.4873 -14.041 27.167 -25.2812 33.6738c-5.79297 -128.348 -16.4639 -256.42 -21.4912 -384.81c-2.72559 -69.6123 -3.95312 -139.089 -3.77539 -208.752c0.0888672 -34.8691 1.86719 -69.6494 2.55371 -104.49
c0.550781 -28.082 1.21875 -55.6035 12.207 -81.9395c10.1338 -24.2871 30.0098 -51.8691 59.6504 -46.3613c30.0801 5.58789 51.9814 31.1113 65.9756 56.4531c31.0459 56.2197 42.7109 124.917 58.624 186.552c35.541 137.665 64.8975 276.692 97.1387 415.123
c3.46387 14.8623 40.7744 13.5508 38.002 0c-33.1514 -161.854 -69.8359 -323.427 -112.537 -483.044zM330.577 396.11c27.9795 11.8428 57.8955 24.0947 88.4512 32.0908c4.27148 67.1426 7.55273 134.43 8.94336 201.688
c0.8125 39.3125 0.817383 78.6855 0.607422 117.998c-0.167969 31.0879 0.238281 64.4814 -8.54688 94.5703c-8.06152 27.6104 -24.4688 59.9863 -53.5166 70.251c-29.0107 10.2549 -60.3232 -12.0244 -80.5215 -31.083
c-47.0059 -44.3496 -70.4619 -109.719 -85.3154 -171.078c-31.1436 -128.655 -41.0537 -260.354 -48.751 -392.413c11.002 3.61719 21.5469 7.7627 30.9951 11.6553c49.8994 20.5615 97.9551 45.2871 147.654 66.3203z" />
    <glyph glyph-name="A" unicode="&#xc2;" horiz-adv-x="772" 
d="M713.549 -245.028c-17.4766 -65.3271 -31.2949 -139.398 -88.6113 -182.506c-51.7432 -38.9209 -124.65 -33.0859 -170.11 13.084c-44.6152 45.3154 -54.8799 112.089 -59.5195 172.71c-5.5498 72.5156 -6.04883 145.101 -4.33105 217.784
c3.37012 142.547 16.874 284.786 26.4336 427.007c-9.19531 -2.89453 -17.8779 -5.94727 -25.5938 -8.70605c-52.2012 -18.6621 -101.736 -43.7148 -152.317 -66.209c-23.6191 -10.5078 -55.6963 -24.2031 -88.8848 -32.8994
c-7.56641 -133.235 -13.9941 -266.666 -38.7852 -397.553c-12.2158 -64.5049 -28.4736 -128.721 -50.4688 -190.621c-19.1523 -53.8955 -48.7695 -108.174 -110.661 -117.804c-57.8018 -9 -110.777 25.8271 -133.837 77.7295
c-26.6211 59.9209 -19.0361 124.179 12.5371 180.511c8.39258 14.9746 54.0723 14.0088 47.542 -7.47266c-18.2607 -60.043 -8.77539 -139.808 30.8037 -190.08c7.15137 -9.0791 18.0977 -21.7197 29.4639 -25.459c15.4697 -5.08789 31.1729 6.76367 42.1328 16.7158
c27.3584 24.8467 39.0654 62.2686 50.8428 96.1289c47.9619 137.917 63.6416 284.964 74.126 429.831c2.9082 40.1992 5.3584 80.4502 7.8418 120.696c-45.5586 -4.9668 -87.873 5.72266 -107.618 53.8389c-5.8584 14.2793 29.4775 17.6025 34.5332 5.42871
c14.377 -34.6309 43.4766 -41.8096 74.4014 -38.0801c5.20898 83.5547 10.9316 167.072 21.5928 250.142c14.041 109.4 29.7441 238.154 107.025 323.376c34.1221 37.6279 83.7461 61.7139 135.293 55.2119c55.4541 -6.99707 98.707 -49.4424 117.635 -100.373
c23.0732 -62.0869 23.1758 -133.029 25.1875 -198.431c2.12402 -68.9912 0.886719 -137.88 -1.84375 -206.829c27.6016 -7.76758 52.0469 -24.9316 61.1162 -53.7607c5.07422 -16.1279 -32.8799 -19.0732 -36.9922 -5.81641
c-5.11621 16.4873 -14.041 27.167 -25.2812 33.6738c-5.79297 -128.348 -16.4639 -256.42 -21.4912 -384.81c-2.72559 -69.6123 -3.95312 -139.089 -3.77539 -208.752c0.0888672 -34.8691 1.86719 -69.6494 2.55371 -104.49
c0.550781 -28.082 1.21875 -55.6035 12.207 -81.9395c10.1338 -24.2871 30.0098 -51.8691 59.6504 -46.3613c30.0801 5.58789 51.9814 31.1113 65.9756 56.4531c31.0459 56.2197 42.7109 124.917 58.624 186.552c35.541 137.665 64.8975 276.692 97.1387 415.123
c3.46387 14.8623 40.7744 13.5508 38.002 0c-33.1514 -161.854 -69.8359 -323.427 -112.537 -483.044zM330.577 396.11c27.9795 11.8428 57.8955 24.0947 88.4512 32.0908c4.27148 67.1426 7.55273 134.43 8.94336 201.688
c0.8125 39.3125 0.817383 78.6855 0.607422 117.998c-0.167969 31.0879 0.238281 64.4814 -8.54688 94.5703c-8.06152 27.6104 -24.4688 59.9863 -53.5166 70.251c-29.0107 10.2549 -60.3232 -12.0244 -80.5215 -31.083
c-47.0059 -44.3496 -70.4619 -109.719 -85.3154 -171.078c-31.1436 -128.655 -41.0537 -260.354 -48.751 -392.413c11.002 3.61719 21.5469 7.7627 30.9951 11.6553c49.8994 20.5615 97.9551 45.2871 147.654 66.3203z" />
    <glyph glyph-name="A" unicode="&#xc1;" horiz-adv-x="772" 
d="M713.549 -245.028c-17.4766 -65.3271 -31.2949 -139.398 -88.6113 -182.506c-51.7432 -38.9209 -124.65 -33.0859 -170.11 13.084c-44.6152 45.3154 -54.8799 112.089 -59.5195 172.71c-5.5498 72.5156 -6.04883 145.101 -4.33105 217.784
c3.37012 142.547 16.874 284.786 26.4336 427.007c-9.19531 -2.89453 -17.8779 -5.94727 -25.5938 -8.70605c-52.2012 -18.6621 -101.736 -43.7148 -152.317 -66.209c-23.6191 -10.5078 -55.6963 -24.2031 -88.8848 -32.8994
c-7.56641 -133.235 -13.9941 -266.666 -38.7852 -397.553c-12.2158 -64.5049 -28.4736 -128.721 -50.4688 -190.621c-19.1523 -53.8955 -48.7695 -108.174 -110.661 -117.804c-57.8018 -9 -110.777 25.8271 -133.837 77.7295
c-26.6211 59.9209 -19.0361 124.179 12.5371 180.511c8.39258 14.9746 54.0723 14.0088 47.542 -7.47266c-18.2607 -60.043 -8.77539 -139.808 30.8037 -190.08c7.15137 -9.0791 18.0977 -21.7197 29.4639 -25.459c15.4697 -5.08789 31.1729 6.76367 42.1328 16.7158
c27.3584 24.8467 39.0654 62.2686 50.8428 96.1289c47.9619 137.917 63.6416 284.964 74.126 429.831c2.9082 40.1992 5.3584 80.4502 7.8418 120.696c-45.5586 -4.9668 -87.873 5.72266 -107.618 53.8389c-5.8584 14.2793 29.4775 17.6025 34.5332 5.42871
c14.377 -34.6309 43.4766 -41.8096 74.4014 -38.0801c5.20898 83.5547 10.9316 167.072 21.5928 250.142c14.041 109.4 29.7441 238.154 107.025 323.376c34.1221 37.6279 83.7461 61.7139 135.293 55.2119c55.4541 -6.99707 98.707 -49.4424 117.635 -100.373
c23.0732 -62.0869 23.1758 -133.029 25.1875 -198.431c2.12402 -68.9912 0.886719 -137.88 -1.84375 -206.829c27.6016 -7.76758 52.0469 -24.9316 61.1162 -53.7607c5.07422 -16.1279 -32.8799 -19.0732 -36.9922 -5.81641
c-5.11621 16.4873 -14.041 27.167 -25.2812 33.6738c-5.79297 -128.348 -16.4639 -256.42 -21.4912 -384.81c-2.72559 -69.6123 -3.95312 -139.089 -3.77539 -208.752c0.0888672 -34.8691 1.86719 -69.6494 2.55371 -104.49
c0.550781 -28.082 1.21875 -55.6035 12.207 -81.9395c10.1338 -24.2871 30.0098 -51.8691 59.6504 -46.3613c30.0801 5.58789 51.9814 31.1113 65.9756 56.4531c31.0459 56.2197 42.7109 124.917 58.624 186.552c35.541 137.665 64.8975 276.692 97.1387 415.123
c3.46387 14.8623 40.7744 13.5508 38.002 0c-33.1514 -161.854 -69.8359 -323.427 -112.537 -483.044zM330.577 396.11c27.9795 11.8428 57.8955 24.0947 88.4512 32.0908c4.27148 67.1426 7.55273 134.43 8.94336 201.688
c0.8125 39.3125 0.817383 78.6855 0.607422 117.998c-0.167969 31.0879 0.238281 64.4814 -8.54688 94.5703c-8.06152 27.6104 -24.4688 59.9863 -53.5166 70.251c-29.0107 10.2549 -60.3232 -12.0244 -80.5215 -31.083
c-47.0059 -44.3496 -70.4619 -109.719 -85.3154 -171.078c-31.1436 -128.655 -41.0537 -260.354 -48.751 -392.413c11.002 3.61719 21.5469 7.7627 30.9951 11.6553c49.8994 20.5615 97.9551 45.2871 147.654 66.3203z" />
    <glyph glyph-name="B" unicode="B" horiz-adv-x="1165" 
d="M1215.93 243.604c-65.4199 -59.6738 -142.725 -97.4004 -224.239 -125.963c0.71875 -49.6377 -7.03027 -99.7754 -19.624 -147.611c-41.5674 -157.923 -149.446 -313.316 -315.417 -354.646c-70.457 -17.5469 -150.356 -17.0381 -218.414 10.46
c-58.96 23.8252 -112.557 83.415 -108.794 150.343c4.04688 72.0254 63.4502 130.225 121.112 171.12c0.125977 8.9668 0.289062 17.9434 0.461914 26.9385c1.16211 60.4443 2.55273 120.889 2.9873 181.347c0.751953 105.387 -1.58691 210.927 -12.3887 315.828
c-9.05078 87.9238 -16.3564 190.271 -64.1045 267.244c-19.7354 31.8164 -50.6318 57.793 -87.793 65.8916c-42.6641 9.29883 -85.4033 -16.3701 -106.418 -52.873c-23.5918 -40.9746 -21.0898 -94.6924 -1.68066 -136.698
c10.7783 -23.3252 37.7119 -56.1494 57.6113 -20.5615c10.3584 18.5312 15.124 39.6211 19.5488 60.1924c5.83496 27.1533 70.9102 22.7842 62.3916 -4.8125c-9.18652 -29.748 -20.623 -58.6797 -48.1357 -75.8525c-20.3477 -12.6963 -45.6289 -21.1543 -69.6543 -16.332
c-54.9033 11.0254 -75.6709 84.1992 -75.9883 132.512c-0.3125 47.6357 22.2705 99.5234 61.7139 127.694c40.9229 29.2256 98.7812 29.2773 145.329 15.9043c111.66 -32.0771 163.903 -136.077 186.953 -241.711c20.5713 -94.2676 27.2227 -192.018 29.043 -289.133
c20.2773 112.431 48.1162 224.03 91.9707 329.701c37.3613 90.0342 91.3545 218.031 197.507 242.683c44.8535 10.4141 92.3955 -2.24512 119.553 -40.7549c27.8389 -39.4766 25.3467 -86.3047 13.6025 -130.762c-15.1104 -57.1855 -45.7031 -109.162 -77.8506 -158.296
c-30.0098 -45.8662 -62.3857 -90.3047 -95.4434 -134.085c68.79 -25.6309 125.962 -77.5186 158.548 -144.671c19.2646 -39.7002 29.2217 -81.958 32.3262 -124.931c70.3633 26.1777 136.769 60.5469 193.735 112.346c9.61133 8.74316 44.541 1.33496 31.5508 -10.5117z
M692.939 665.672c-22.9609 -49.5215 -42.1152 -100.759 -58.2471 -152.89c-45.1289 -145.787 -66.4707 -296.56 -85.9688 -447.579c-0.508789 -20.6787 -1.03613 -41.3525 -1.58203 -62.0264c51.0107 23.8203 104.93 41.7539 158.82 57.2188
c60.7061 17.416 123.718 32.0596 185.684 49.5645c-0.139648 48.8027 -8.8457 97.3389 -30.3457 141.487c-26.9287 55.291 -76.5762 106.759 -138.93 118.946c-20.1328 3.93457 -48.7188 18.624 -29.7344 41.6602c78.1865 94.8838 164.047 194.486 207.178 311.318
c12.0898 32.7549 27.1719 84.4277 5.81152 116.229c-34.5234 51.4023 -106.843 -7.98242 -133.272 -38.9492c-33.7109 -39.5039 -57.708 -88.1523 -79.4131 -134.98zM881.832 13.9092c4.76562 23.7832 8.00391 48.1904 9.25 72.6963
c-45.6006 -12.6455 -91.542 -24.0957 -136.587 -36.4053c-71.2178 -19.46 -142.449 -41.7812 -208.084 -76.0479c-1.41895 -60.748 -2.74023 -121.327 -14.0127 -181.142c-5.34473 -28.3711 -66.4375 -28.1426 -71.9131 0
c-7.66895 39.4248 -9.84863 78.9385 -10.1191 118.704c-35.2002 -29.4912 -64.5938 -65.3311 -75.5957 -108.065c-18.2324 -70.8066 39.2012 -126.261 102.306 -146.062c54.8291 -17.2061 117.705 -11.7119 170.069 11.0859
c64.5049 28.0869 115.002 85.2217 152.573 143.094c39.584 60.9717 67.834 130.863 82.1133 202.142z" />
    <glyph glyph-name="C" unicode="C" horiz-adv-x="582" 
d="M623.709 278.566c4.10742 11.25 36.1445 8.34277 31.374 -4.9375c-46.8936 -130.163 -100.434 -258.264 -162.278 -382.064c-27.624 -55.291 -57.8486 -109.798 -96.8066 -158.026c-34.1592 -42.2861 -78.0508 -76.1328 -134.056 -79.293
c-114.274 -6.45117 -165.929 130.663 -190.604 220.907c-22.4805 82.2246 -35.5781 167.217 -40.876 252.261c-9.98438 160.262 -0.555664 324.767 41.6562 480.15c23.7031 87.2568 62.3389 171.582 121.892 240.41c33.5996 38.832 76.8428 68.2021 127.965 77.0615
c45.7168 7.9209 98.3613 -1.37305 128.978 -39.1777c30.4111 -37.5527 32.0215 -90.0801 28.0635 -135.979c-4.32227 -50.1191 -18.7598 -101.064 -48.2744 -142.389c-26.1357 -36.5918 -67.334 -55.5479 -110.353 -36.1992
c-52.2471 23.498 -61.8584 78.1963 -53.3398 129.632c4.32715 26.1357 69.5605 24.8711 66.4424 0.000976562c-3.39844 -27.1113 -11.5859 -59.7256 -3.61816 -86.5654c3.21582 -10.8389 10.96 -27.1201 23.4561 -29.5283c14.4844 -2.78711 30.4248 15.3008 38.3789 25.1875
c32.4414 40.335 47.7334 96.9092 50.2217 147.766c2.15625 44.1348 -2.35742 112.72 -50.917 132.04c-45.3994 18.0645 -86.3555 -22.5742 -111.118 -55.5947c-87.3359 -116.454 -122.046 -270.605 -138.691 -412.476c-13.7285 -116.995 -15.8945 -237.1 -3.62695 -354.37
c9.08398 -86.8125 22.6162 -174.283 51.1885 -257.04c12.8184 -37.123 26.4209 -85.2725 56.8369 -112.346c40.5498 -36.0918 86.6963 8.63574 113.887 40.335c63.3477 73.8545 104.821 165.046 145.427 252.597c43.6631 94.1504 83.1816 190.159 118.793 287.639z" />
    <glyph glyph-name="D" unicode="D" horiz-adv-x="1164" 
d="M1202.23 267.21c6.3623 12.2861 42.5977 8.03125 35.5869 -5.59473c-49.0312 -95.2529 -146.669 -135.663 -246.968 -154.722c-28.0908 -105.676 -69.415 -208.425 -125.289 -301.838c-73.3135 -122.564 -176.838 -238.748 -324.291 -264.226
c-120.398 -20.7998 -266.078 28.9453 -289.786 162.619c-23.4326 132.124 92.4336 248.153 197.423 307.188c0.947266 0.532227 1.91309 1.00879 2.86035 1.53125c0.952148 47.8037 1.89551 95.6074 2.23633 143.42c0.751953 105.387 -1.58691 210.927 -12.3887 315.828
c-9.05078 87.9238 -16.3564 190.271 -64.1045 267.244c-19.7354 31.8164 -50.6318 57.793 -87.793 65.8916c-42.6641 9.29883 -85.3984 -16.3701 -106.418 -52.873c-23.5918 -40.9746 -21.0898 -94.6924 -1.68066 -136.698
c10.7783 -23.3252 37.7119 -56.1494 57.6113 -20.5615c10.3584 18.5312 15.1289 39.6211 19.5498 60.1924c5.83496 27.1533 70.9092 22.7842 62.3906 -4.8125c-9.18164 -29.748 -20.623 -58.6797 -48.1357 -75.8525c-20.3477 -12.6963 -45.6289 -21.1543 -69.6543 -16.332
c-54.9033 11.0254 -75.6709 84.1992 -75.9883 132.512c-0.3125 47.6357 22.2705 99.5234 61.7139 127.694c40.9229 29.2256 98.7812 29.2773 145.329 15.9043c111.66 -32.0771 163.903 -136.077 186.953 -241.711c23.666 -108.435 28.9268 -221.472 29.5713 -332.852
c11.0625 57.167 23.2461 114.115 36.6807 170.783c17.332 73.1123 36.6758 146.011 64.333 215.982c24.791 62.7217 56.3457 139.14 110.414 182.537c44.4844 35.709 107.851 42.3281 152.896 4.12598c50.3574 -42.7109 77.4072 -114.12 95.2334 -175.465
c41.8105 -143.863 30.5703 -297.422 4.17773 -443.181c-5.02246 -27.7412 -10.9316 -55.4219 -17.7002 -82.9434c84.7686 18.125 162.685 54.0674 205.237 136.208zM589.802 277.201c-14.5918 -73.1592 -27.207 -146.688 -38.0322 -220.478
c86.3555 30.4111 178.662 44.9795 269.261 52.8779c23.0869 2.01172 47.2295 3.89746 71.7451 6.28711c15.3008 53.3027 27.6006 107.506 37.3047 162.097c23.8105 133.926 33.3564 276.361 6.92676 410.702c-9.69531 49.2783 -25.3516 152.835 -95.332 149.507
c-68.543 -3.25781 -108.808 -95.3828 -133.654 -148.144c-60.916 -129.342 -90.4219 -273.443 -118.219 -412.85zM809.291 -101.144c31.2002 62.5215 56.4268 127.678 76.7695 194.377c-114.689 -10.2275 -231.041 -22.0088 -338.238 -64.5283
c-0.275391 -10.5957 -0.550781 -21.1914 -0.831055 -31.7871c-1.79199 -68.3701 -1.88574 -136.624 -14.5635 -203.906c-5.34473 -28.3711 -66.4375 -28.1426 -71.9131 0c-11.6787 60.0146 -10.6611 120.226 -9.48926 181.234
c0.0322266 1.66211 0.0644531 3.31934 0.0966797 4.98145c-90.0947 -58.6611 -178.714 -156.976 -155.538 -268.389c11.7393 -56.4434 60.7842 -103.313 113.83 -122.909c54.9404 -20.3008 111.319 -6.38574 161.508 20.1328
c111.296 58.8008 183.961 181.767 238.369 290.794z" />
    <glyph glyph-name="E" unicode="E" horiz-adv-x="556" 
d="M597.368 278.566c4.10742 11.25 36.1533 8.34766 31.3691 -4.93262c-51.4443 -142.79 -109.713 -285.113 -181.364 -419.081c-49.3438 -92.2607 -124.286 -220.996 -248.176 -195.977c-57.9004 11.6934 -90.0996 65.6309 -115.339 114.036
c-26.6396 51.0947 -42.8369 107.478 -49.792 164.579c-12.2861 100.84 -1.87695 210.213 49.5625 299.645c16.8184 29.2393 37.9775 58.082 63.8379 80.7637c-25.6777 33.8789 -45.1191 73.9199 -58.5342 113.396c-32.4043 95.3506 -29.3838 196.186 5.91016 290.322
c39.5039 105.377 135.605 233.062 265.092 202.076c119.656 -28.6279 107.025 -187.452 67.4043 -275.488c-20.8838 -46.3984 -59.3799 -96.1016 -116.669 -82.5039c-63.665 15.1104 -79.4424 78.1592 -69.9619 135.522
c4.31738 26.1396 69.5645 24.8604 66.4414 -0.000976562c-3.62695 -28.8564 -12.585 -64.5146 -1.21875 -92.5635c6.25977 -15.4414 17.6865 -28.5439 35.5596 -19.8574c12.6729 6.16113 22.835 19.2969 30.4805 30.6445c31.5967 46.9072 45.5303 106.235 43.9199 162.343
c-1.26074 43.7988 -15.0967 109.858 -69.7295 112.944c-41.6416 2.35742 -76.9443 -33.501 -98.5986 -65.3076c-50.4639 -74.1348 -78.1953 -169.695 -78.0273 -259.132c0.112305 -61.8398 14.8955 -122.247 42.3896 -177.566
c8.75195 -17.6162 18.8721 -34.3086 29.8506 -50.6045c0.873047 -1.28809 1.80176 -2.54395 2.7168 -3.80469c1.25586 -1.57812 2.48828 -3.17969 3.73438 -4.76172c1.0918 -1.39062 2.23535 -2.74902 3.40723 -4.07422
c11.9922 -13.5273 5.85352 -26.6631 -8.08984 -35.7422c-0.0791016 -0.046875 -0.116211 -0.0703125 -0.19043 -0.117188c-0.275391 -0.251953 -0.508789 -0.461914 -0.844727 -0.755859c-6.38574 -5.62012 -12.7764 -11.1191 -18.751 -17.1963
c-21.248 -21.6211 -36.3721 -43.9619 -50.3105 -71.3672c-41.418 -81.4355 -48.8682 -177.001 -40.2842 -266.815c4.87305 -50.9961 18.2324 -99.3408 35.5547 -147.368c12.2207 -33.8789 36.4893 -110.894 83.3916 -106.996
c53.9648 4.48535 96.8154 71.9268 123.521 112.486c30.8037 46.7812 55.8799 96.9746 80.1484 147.364c52.7559 109.536 99.8779 221.7 141.59 335.891zM244.39 338.162c-3.77148 5.22754 -1.4082 1.76465 -0.0966797 0.125977
c0.0322266 -0.0371094 0.0644531 -0.0839844 0.0966797 -0.125977z" />
    <glyph glyph-name="E" unicode="&#xcb;" horiz-adv-x="556" 
d="M597.368 278.566c4.10742 11.25 36.1533 8.34766 31.3691 -4.93262c-51.4443 -142.79 -109.713 -285.113 -181.364 -419.081c-49.3438 -92.2607 -124.286 -220.996 -248.176 -195.977c-57.9004 11.6934 -90.0996 65.6309 -115.339 114.036
c-26.6396 51.0947 -42.8369 107.478 -49.792 164.579c-12.2861 100.84 -1.87695 210.213 49.5625 299.645c16.8184 29.2393 37.9775 58.082 63.8379 80.7637c-25.6777 33.8789 -45.1191 73.9199 -58.5342 113.396c-32.4043 95.3506 -29.3838 196.186 5.91016 290.322
c39.5039 105.377 135.605 233.062 265.092 202.076c119.656 -28.6279 107.025 -187.452 67.4043 -275.488c-20.8838 -46.3984 -59.3799 -96.1016 -116.669 -82.5039c-63.665 15.1104 -79.4424 78.1592 -69.9619 135.522
c4.31738 26.1396 69.5645 24.8604 66.4414 -0.000976562c-3.62695 -28.8564 -12.585 -64.5146 -1.21875 -92.5635c6.25977 -15.4414 17.6865 -28.5439 35.5596 -19.8574c12.6729 6.16113 22.835 19.2969 30.4805 30.6445c31.5967 46.9072 45.5303 106.235 43.9199 162.343
c-1.26074 43.7988 -15.0967 109.858 -69.7295 112.944c-41.6416 2.35742 -76.9443 -33.501 -98.5986 -65.3076c-50.4639 -74.1348 -78.1953 -169.695 -78.0273 -259.132c0.112305 -61.8398 14.8955 -122.247 42.3896 -177.566
c8.75195 -17.6162 18.8721 -34.3086 29.8506 -50.6045c0.873047 -1.28809 1.80176 -2.54395 2.7168 -3.80469c1.25586 -1.57812 2.48828 -3.17969 3.73438 -4.76172c1.0918 -1.39062 2.23535 -2.74902 3.40723 -4.07422
c11.9922 -13.5273 5.85352 -26.6631 -8.08984 -35.7422c-0.0791016 -0.046875 -0.116211 -0.0703125 -0.19043 -0.117188c-0.275391 -0.251953 -0.508789 -0.461914 -0.844727 -0.755859c-6.38574 -5.62012 -12.7764 -11.1191 -18.751 -17.1963
c-21.248 -21.6211 -36.3721 -43.9619 -50.3105 -71.3672c-41.418 -81.4355 -48.8682 -177.001 -40.2842 -266.815c4.87305 -50.9961 18.2324 -99.3408 35.5547 -147.368c12.2207 -33.8789 36.4893 -110.894 83.3916 -106.996
c53.9648 4.48535 96.8154 71.9268 123.521 112.486c30.8037 46.7812 55.8799 96.9746 80.1484 147.364c52.7559 109.536 99.8779 221.7 141.59 335.891zM244.39 338.162c-3.77148 5.22754 -1.4082 1.76465 -0.0966797 0.125977
c0.0322266 -0.0371094 0.0644531 -0.0839844 0.0966797 -0.125977z" />
    <glyph glyph-name="E" unicode="&#xca;" horiz-adv-x="556" 
d="M597.368 278.566c4.10742 11.25 36.1533 8.34766 31.3691 -4.93262c-51.4443 -142.79 -109.713 -285.113 -181.364 -419.081c-49.3438 -92.2607 -124.286 -220.996 -248.176 -195.977c-57.9004 11.6934 -90.0996 65.6309 -115.339 114.036
c-26.6396 51.0947 -42.8369 107.478 -49.792 164.579c-12.2861 100.84 -1.87695 210.213 49.5625 299.645c16.8184 29.2393 37.9775 58.082 63.8379 80.7637c-25.6777 33.8789 -45.1191 73.9199 -58.5342 113.396c-32.4043 95.3506 -29.3838 196.186 5.91016 290.322
c39.5039 105.377 135.605 233.062 265.092 202.076c119.656 -28.6279 107.025 -187.452 67.4043 -275.488c-20.8838 -46.3984 -59.3799 -96.1016 -116.669 -82.5039c-63.665 15.1104 -79.4424 78.1592 -69.9619 135.522
c4.31738 26.1396 69.5645 24.8604 66.4414 -0.000976562c-3.62695 -28.8564 -12.585 -64.5146 -1.21875 -92.5635c6.25977 -15.4414 17.6865 -28.5439 35.5596 -19.8574c12.6729 6.16113 22.835 19.2969 30.4805 30.6445c31.5967 46.9072 45.5303 106.235 43.9199 162.343
c-1.26074 43.7988 -15.0967 109.858 -69.7295 112.944c-41.6416 2.35742 -76.9443 -33.501 -98.5986 -65.3076c-50.4639 -74.1348 -78.1953 -169.695 -78.0273 -259.132c0.112305 -61.8398 14.8955 -122.247 42.3896 -177.566
c8.75195 -17.6162 18.8721 -34.3086 29.8506 -50.6045c0.873047 -1.28809 1.80176 -2.54395 2.7168 -3.80469c1.25586 -1.57812 2.48828 -3.17969 3.73438 -4.76172c1.0918 -1.39062 2.23535 -2.74902 3.40723 -4.07422
c11.9922 -13.5273 5.85352 -26.6631 -8.08984 -35.7422c-0.0791016 -0.046875 -0.116211 -0.0703125 -0.19043 -0.117188c-0.275391 -0.251953 -0.508789 -0.461914 -0.844727 -0.755859c-6.38574 -5.62012 -12.7764 -11.1191 -18.751 -17.1963
c-21.248 -21.6211 -36.3721 -43.9619 -50.3105 -71.3672c-41.418 -81.4355 -48.8682 -177.001 -40.2842 -266.815c4.87305 -50.9961 18.2324 -99.3408 35.5547 -147.368c12.2207 -33.8789 36.4893 -110.894 83.3916 -106.996
c53.9648 4.48535 96.8154 71.9268 123.521 112.486c30.8037 46.7812 55.8799 96.9746 80.1484 147.364c52.7559 109.536 99.8779 221.7 141.59 335.891zM244.39 338.162c-3.77148 5.22754 -1.4082 1.76465 -0.0966797 0.125977
c0.0322266 -0.0371094 0.0644531 -0.0839844 0.0966797 -0.125977z" />
    <glyph glyph-name="E" unicode="&#xc9;" horiz-adv-x="556" 
d="M597.368 278.566c4.10742 11.25 36.1533 8.34766 31.3691 -4.93262c-51.4443 -142.79 -109.713 -285.113 -181.364 -419.081c-49.3438 -92.2607 -124.286 -220.996 -248.176 -195.977c-57.9004 11.6934 -90.0996 65.6309 -115.339 114.036
c-26.6396 51.0947 -42.8369 107.478 -49.792 164.579c-12.2861 100.84 -1.87695 210.213 49.5625 299.645c16.8184 29.2393 37.9775 58.082 63.8379 80.7637c-25.6777 33.8789 -45.1191 73.9199 -58.5342 113.396c-32.4043 95.3506 -29.3838 196.186 5.91016 290.322
c39.5039 105.377 135.605 233.062 265.092 202.076c119.656 -28.6279 107.025 -187.452 67.4043 -275.488c-20.8838 -46.3984 -59.3799 -96.1016 -116.669 -82.5039c-63.665 15.1104 -79.4424 78.1592 -69.9619 135.522
c4.31738 26.1396 69.5645 24.8604 66.4414 -0.000976562c-3.62695 -28.8564 -12.585 -64.5146 -1.21875 -92.5635c6.25977 -15.4414 17.6865 -28.5439 35.5596 -19.8574c12.6729 6.16113 22.835 19.2969 30.4805 30.6445c31.5967 46.9072 45.5303 106.235 43.9199 162.343
c-1.26074 43.7988 -15.0967 109.858 -69.7295 112.944c-41.6416 2.35742 -76.9443 -33.501 -98.5986 -65.3076c-50.4639 -74.1348 -78.1953 -169.695 -78.0273 -259.132c0.112305 -61.8398 14.8955 -122.247 42.3896 -177.566
c8.75195 -17.6162 18.8721 -34.3086 29.8506 -50.6045c0.873047 -1.28809 1.80176 -2.54395 2.7168 -3.80469c1.25586 -1.57812 2.48828 -3.17969 3.73438 -4.76172c1.0918 -1.39062 2.23535 -2.74902 3.40723 -4.07422
c11.9922 -13.5273 5.85352 -26.6631 -8.08984 -35.7422c-0.0791016 -0.046875 -0.116211 -0.0703125 -0.19043 -0.117188c-0.275391 -0.251953 -0.508789 -0.461914 -0.844727 -0.755859c-6.38574 -5.62012 -12.7764 -11.1191 -18.751 -17.1963
c-21.248 -21.6211 -36.3721 -43.9619 -50.3105 -71.3672c-41.418 -81.4355 -48.8682 -177.001 -40.2842 -266.815c4.87305 -50.9961 18.2324 -99.3408 35.5547 -147.368c12.2207 -33.8789 36.4893 -110.894 83.3916 -106.996
c53.9648 4.48535 96.8154 71.9268 123.521 112.486c30.8037 46.7812 55.8799 96.9746 80.1484 147.364c52.7559 109.536 99.8779 221.7 141.59 335.891zM244.39 338.162c-3.77148 5.22754 -1.4082 1.76465 -0.0966797 0.125977
c0.0322266 -0.0371094 0.0644531 -0.0839844 0.0966797 -0.125977z" />
    <glyph glyph-name="F" unicode="F" horiz-adv-x="762" 
d="M387.938 650.712c-3.75781 6.57715 -7.86035 13.1357 -12.248 19.5957c-47.7383 -26.8359 -97.5254 -55.2168 -150.991 -66.9756c-42.4453 -9.33594 -105.247 -1.19043 -117.668 49.1855c-11.6094 47.0752 29.2627 89.1934 68.3467 107.286
c79.0693 36.6055 154.88 6.20801 208.779 -49.7734c15.5254 10.2783 30.9111 20.8281 46.2969 31.4756c28.292 19.5859 57.0742 38.9619 86.6357 56.9756c3.75293 28.8945 7.69727 57.7559 12.0527 86.543c6.51172 43.0234 113.677 40.6426 108.747 -0.000976562
c-1.08301 -8.89648 -2.10059 -17.8027 -3.16016 -26.7041c29.3564 11.5947 59.6367 20.8838 91.1357 26.8115c55.2539 10.4004 117.131 12.1084 169.845 -9.8584c45.1807 -18.8252 86.5518 -61.0039 78.9385 -113.583c-4.91992 -33.9727 -89.5898 -33.2822 -86.8643 0
c6.05469 73.8643 -68.3418 92.8203 -127.255 87.0508c-45.498 -4.45312 -89.3203 -18.4053 -131.233 -36.7637c-7.41699 -64.9258 -14.1621 -129.949 -19.6699 -195.038c-9.45215 -111.674 -15.1465 -223.66 -17.4668 -335.717
c69.0049 8.04297 138.668 10.6709 208.215 7.90723c22.5225 -0.896484 22.667 -22.1816 0 -21.2432c-69.9668 2.90332 -139.653 -0.0371094 -208.687 -8.39258c-0.676758 -40.7041 -0.915039 -81.4082 -0.700195 -122.112
c0.419922 -79.2373 2.66016 -158.47 6.72168 -237.608c2.03027 -39.541 3.85547 -79.0918 6.26855 -118.61c2.38574 -39.0791 6.13379 -79.4375 1.29297 -118.4c-3.8418 -30.9014 -76.2686 -35.3262 -85.6738 -6.60938c-14.0596 42.9307 -18.1162 89.3291 -22.2617 134.127
c-4.21973 45.582 -7.67871 91.1729 -10.0781 136.89c-5.48047 104.388 -7.94531 209.177 -7.19336 314.003c-36.2549 -7.54297 -72.2725 -16.5566 -107.977 -27.0449c-12.8975 -3.78516 -38.0811 9.86328 -16.9727 16.5479c41.1748 13.042 82.9756 23.8252 125.178 32.54
c0.490234 42.0996 1.50293 84.1992 3.07617 126.275c-6.89453 26.7744 -14.6201 53.3438 -23.0967 79.708c-19.7031 61.2793 -40.2744 125.406 -72.333 181.514zM511.007 749.47c-35.5508 -20.9541 -70.7041 -42.5986 -106.576 -62.9922
c11.623 -15.1104 21.8271 -31.3828 30.2852 -48.2754c22.2051 -44.3545 39.0938 -92.1719 53.9932 -139.976c5.08789 83.9795 12.458 167.791 22.2979 251.243zM282.562 651.211c26.2988 12.459 51.3467 26.7783 75.7881 42.1074
c-25.0293 29.5527 -57.2051 53.4199 -95.7617 59.1104c-49.3809 7.28613 -113.06 -24.6377 -118.46 -79c-3.23047 -32.4834 23.2549 -54.2959 54.5107 -51.6162c28.6885 2.45996 58.2637 17.2432 83.9229 29.3984z" />
    <glyph glyph-name="G" unicode="G" horiz-adv-x="773" 
d="M147.774 -81.3955c-68.3096 56.6963 -93.8145 160.117 -107.939 243.682c-14.8721 88.0635 -18.5547 178.583 -9.35938 267.459c8.99512 86.9111 29.7676 175.633 68.3428 254.398c38.3369 78.2754 93.3242 154.721 177.346 187.387
c71.2363 27.6895 162.33 18.1484 205.036 -51.6592c42.9307 -70.167 26.9941 -169.224 10.4375 -244.628c-13.752 -62.624 -40.5596 -170.61 -124.992 -159.842c-95.9717 12.2393 -110.55 144.699 -95.0615 220.146c5.73633 27.9512 76.4307 29.0576 74.1016 0
c-3.58496 -44.6572 -3.47754 -88.7871 5.09277 -132.898c3.39844 -17.4814 7.20312 -38.5801 16.8613 -53.8486c8.8457 -13.9805 17.4346 -13.21 29.6689 -2.60938c7.12793 6.17578 12.7998 14.3955 17.8369 22.2471c22.5322 35.1162 32.8203 79.5586 40.8584 119.903
c8.02441 40.2881 12.7998 82.126 11.4043 123.259c-2.08203 61.4199 -28.2178 137.445 -102.899 131.765c-60.6826 -4.61621 -99.3838 -65.9941 -126.677 -113.41c-71.5537 -124.31 -102.665 -264.373 -101.377 -407.2c0.648438 -71.6562 8.3457 -143.826 24.5576 -213.672
c8.31836 -35.8398 20.3105 -70.9375 35.0234 -104.653c11.8193 -27.083 27.4189 -56.0332 52.8076 -72.6416c20.1836 -13.2012 50.1328 -27.373 74.9053 -22.2197c34.6074 7.19824 60.8643 34.7617 80.0537 62.6611c40.1113 58.3203 67.708 126.326 85.5762 194.729
c0.201172 3.2207 0.378906 6.44141 0.617188 9.66211c1.89551 25.5518 55.7725 24.3379 65.2578 5.03613c28.6465 -58.3105 31.0742 -128.768 29.2773 -192.629c-0.37793 -13.5322 -1.03613 -27.0547 -1.96973 -40.5586c93.0303 87.4287 156.326 200.802 203.947 318.138
c5.25098 12.9346 42.3369 9.26562 36.292 -5.7041c-47.0518 -116.491 -109.709 -229.206 -200.635 -317.345c-13.957 -13.5273 -28.5576 -26.1777 -43.5742 -38.2725c-3.02051 -26.4346 -7.11914 -52.7422 -12.3896 -78.8398
c-23.2832 -115.338 -93.082 -247.004 -214.05 -281.952c-53.1152 -15.3477 -121.71 -10.1992 -156.075 38.4258c-35.3779 50.0586 22.8252 106.512 58.8564 135.952c64.2998 52.5322 137.366 92.8252 206.95 137.87c1.2832 6.95996 2.51074 13.9199 3.63574 20.8467
c7.94043 48.7842 13.2529 97.9463 17.333 147.183c0.891602 10.7217 1.52148 21.4482 2.05371 32.1797c-4.86816 -11.1426 -10.0166 -22.168 -15.5293 -33.0391c-20.6416 -40.6895 -44.7607 -84.6982 -83.3359 -111.029
c-30.7988 -21.0195 -74.1025 -35.541 -111.184 -37.0117c-46.8564 -1.85742 -91.0381 12.8184 -127.083 42.7344zM357.039 -382.473c51.9678 56.2432 80.1426 128.37 97.1152 201.843c-38.2529 -23.9648 -76.8467 -47.4678 -113.891 -73.0898
c-37.7959 -26.1396 -120.576 -75.9502 -112.874 -131.895c4.16406 -30.2148 43.7988 -43.084 69.7852 -37.1885c23.8291 5.40527 43.7139 22.8486 59.8643 40.3301z" />
    <glyph glyph-name="H" unicode="H" horiz-adv-x="1182" 
d="M946.876 -314.873c-124.067 43.6865 -145.275 204.903 -156.25 317.38c-13.3691 137.002 0.0742188 276.296 13.541 412.747c0.317383 3.22559 0.695312 6.44141 1.02246 9.66211c-9.83984 -3.87402 -19.6055 -7.93066 -29.2676 -12.1406
c-66.0693 -28.7959 -128.539 -65.042 -193.376 -96.3867c-10.4092 -5.03223 -21.127 -10.2412 -32.0684 -15.4043c0.629883 -35.0273 0.658203 -69.9707 0.466797 -104.634c-0.369141 -66.4941 -2.21289 -132.965 -3.95898 -199.431
c-1.79199 -68.3701 -1.88574 -136.624 -14.5635 -203.906c-5.34473 -28.3711 -66.4375 -28.1426 -71.9131 0c-11.6787 60.0146 -10.6611 120.226 -9.48926 181.234c1.16211 60.4443 2.55762 120.889 2.9873 181.347c0.256836 35.9189 0.112305 71.8564 -0.564453 107.785
c-22.7656 -6.03516 -45.7783 -9.61035 -68.6279 -9.00781c-52.4902 1.38672 -113.667 39.5283 -96.7783 99.4121c3.375 11.9688 36.6055 9.54102 33.123 -5.20508c-10.2129 -43.2617 32.624 -74.7002 71.6523 -73.6074c20.1328 0.569336 40.377 5.56348 60.085 12.2061
c-1.60547 61.5225 -4.9707 122.993 -11.2773 184.24c-9.05078 87.9238 -16.3564 190.271 -64.1045 267.244c-19.7354 31.8164 -50.6318 57.793 -87.793 65.8916c-42.6641 9.29883 -85.4033 -16.3701 -106.418 -52.873c-23.5869 -40.9746 -21.085 -94.6924 -1.68066 -136.698
c10.7783 -23.3252 37.7119 -56.1494 57.6113 -20.5615c10.3584 18.5312 15.1289 39.6211 19.5498 60.1924c5.83496 27.1533 70.9102 22.7842 62.3916 -4.8125c-9.18652 -29.748 -20.623 -58.6797 -48.1357 -75.8525c-20.3477 -12.6963 -45.6289 -21.1543 -69.6543 -16.332
c-54.9033 11.0254 -75.6709 84.1992 -75.9883 132.512c-0.3125 47.6357 22.2705 99.5234 61.7139 127.694c40.9229 29.2256 98.7812 29.2773 145.329 15.9043c111.66 -32.0771 163.903 -136.077 186.953 -241.711c18.835 -86.3086 25.9951 -175.539 28.4688 -264.522
c47.7939 22.7041 94.1973 48.4004 141.506 72.0342c37.7021 18.835 76.5107 37.1094 116.565 51.332c6.31055 58.1846 13.8584 116.183 22.3955 174.11c10.0498 68.1787 19.5117 141.138 46.1279 205.041c8.92969 21.4346 66.1719 20.6318 68.4824 -5.28418
c6.39062 -71.6895 -7.28613 -146.604 -14.9092 -217.962c-4.72363 -44.2236 -9.125 -88.5029 -13.3027 -132.796c46.7109 -1.26465 98.1924 -20.9766 93.2402 -75.208c-1.32129 -14.4746 -37.4229 -13.625 -36.1768 0.000976562
c3.64551 39.9238 -26.9053 53.1855 -59.0811 53.8994c-1.71777 -18.5547 -3.39844 -37.1143 -5.03711 -55.6738c-10.7686 -122.056 -20.1367 -245.213 -14.4277 -367.786c2.85645 -61.3311 7.2998 -123.11 18.7871 -183.526c9.21875 -48.4941 27.6289 -104 71.3291 -132.114
c60.5049 -38.9258 74.0879 64.6543 81.9023 102.497c10.8525 52.5557 19.1377 105.587 28.5576 158.408c18.6719 104.695 43.1553 209.886 101.471 300.377c7.68359 11.917 44.3633 6.82422 36.293 -5.7041c-74.7842 -116.043 -93.1475 -254.296 -115.982 -387.592
c-5.28418 -30.8408 -10.8672 -61.6396 -17.5791 -92.2051c-5.09766 -23.2041 -9.56445 -47.832 -21.1777 -68.8184c-26.415 -47.7285 -84.5303 -52.1025 -131.97 -35.3965z" />
    <glyph glyph-name="I" unicode="I" horiz-adv-x="773" 
d="M116.311 371.42c-34.8779 28.959 -45.0859 77.7051 -48.7178 120.696c-14.083 167.109 101.918 356.308 275.129 384.212c91.2891 14.7041 171.282 -32.0068 206.454 -116.892c38.4727 -92.8486 33.165 -201.545 23.8711 -299.505
c-9.9707 -105.083 -30.5742 -209.316 -47.1035 -313.513c-8.32324 -52.4717 -15.2412 -105.321 -19.1758 -158.32c-3.81836 -51.4072 -0.602539 -102.161 -0.845703 -153.526c-0.0888672 -18.457 -3.37988 -52.9619 13.8213 -66.4521
c14.998 -11.7627 41.2871 22.5322 50.6182 34.0293c34.8086 42.874 57.415 95.4111 80.9922 144.923c49.2832 103.491 92.3867 209.597 137.586 314.885c5.47559 12.748 42.3281 9.34082 36.293 -5.7041c-44.8164 -111.73 -91.9756 -222.877 -144.157 -331.382
c-33.3281 -69.3037 -91.1494 -220.16 -193.67 -190.473c-44.1396 12.7852 -53.7744 54.3057 -65.3457 93.7021c-13.8213 47.0518 -15.2451 98.8281 -15.4268 147.523c-0.364258 98.4268 15.749 195.267 32.6699 291.915c17.2383 98.4775 34.3975 197.101 41.0068 296.965
c3.11328 47.0283 3.30469 94.6357 0.666992 141.702c-2.17969 38.9531 -8.42969 84.2734 -35.5498 114.587c-62.0361 69.332 -172.071 -0.134766 -221.564 -50.207c-57.0459 -57.709 -93.4414 -136.315 -100.882 -217.098
c-3.72461 -40.3955 -2.14648 -84.334 12.7305 -122.521c6.72656 -17.2754 17.8877 -39.2471 36.2373 -46.6738c19.8193 -8.01953 35.2139 7.04883 48.3633 19.6426c33.1279 31.7324 57.8398 68.4082 80.1152 108.281c23.3438 41.7871 45.5439 85.9033 61.8398 130.935
c5.5918 15.4648 51.2666 15.2734 50.5713 -3.89746c-2.03027 -56 -12.7012 -107.664 -39.8779 -157.209c-26.0283 -47.4492 -59.0537 -99.0059 -110.54 -120.954c-47.2812 -20.1562 -104.351 -24.3389 -146.109 10.3291z" />
    <glyph glyph-name="I" unicode="&#xcf;" horiz-adv-x="773" 
d="M116.311 371.42c-34.8779 28.959 -45.0859 77.7051 -48.7178 120.696c-14.083 167.109 101.918 356.308 275.129 384.212c91.2891 14.7041 171.282 -32.0068 206.454 -116.892c38.4727 -92.8486 33.165 -201.545 23.8711 -299.505
c-9.9707 -105.083 -30.5742 -209.316 -47.1035 -313.513c-8.32324 -52.4717 -15.2412 -105.321 -19.1758 -158.32c-3.81836 -51.4072 -0.602539 -102.161 -0.845703 -153.526c-0.0888672 -18.457 -3.37988 -52.9619 13.8213 -66.4521
c14.998 -11.7627 41.2871 22.5322 50.6182 34.0293c34.8086 42.874 57.415 95.4111 80.9922 144.923c49.2832 103.491 92.3867 209.597 137.586 314.885c5.47559 12.748 42.3281 9.34082 36.293 -5.7041c-44.8164 -111.73 -91.9756 -222.877 -144.157 -331.382
c-33.3281 -69.3037 -91.1494 -220.16 -193.67 -190.473c-44.1396 12.7852 -53.7744 54.3057 -65.3457 93.7021c-13.8213 47.0518 -15.2451 98.8281 -15.4268 147.523c-0.364258 98.4268 15.749 195.267 32.6699 291.915c17.2383 98.4775 34.3975 197.101 41.0068 296.965
c3.11328 47.0283 3.30469 94.6357 0.666992 141.702c-2.17969 38.9531 -8.42969 84.2734 -35.5498 114.587c-62.0361 69.332 -172.071 -0.134766 -221.564 -50.207c-57.0459 -57.709 -93.4414 -136.315 -100.882 -217.098
c-3.72461 -40.3955 -2.14648 -84.334 12.7305 -122.521c6.72656 -17.2754 17.8877 -39.2471 36.2373 -46.6738c19.8193 -8.01953 35.2139 7.04883 48.3633 19.6426c33.1279 31.7324 57.8398 68.4082 80.1152 108.281c23.3438 41.7871 45.5439 85.9033 61.8398 130.935
c5.5918 15.4648 51.2666 15.2734 50.5713 -3.89746c-2.03027 -56 -12.7012 -107.664 -39.8779 -157.209c-26.0283 -47.4492 -59.0537 -99.0059 -110.54 -120.954c-47.2812 -20.1562 -104.351 -24.3389 -146.109 10.3291z" />
    <glyph glyph-name="I" unicode="&#xce;" horiz-adv-x="773" 
d="M116.311 371.42c-34.8779 28.959 -45.0859 77.7051 -48.7178 120.696c-14.083 167.109 101.918 356.308 275.129 384.212c91.2891 14.7041 171.282 -32.0068 206.454 -116.892c38.4727 -92.8486 33.165 -201.545 23.8711 -299.505
c-9.9707 -105.083 -30.5742 -209.316 -47.1035 -313.513c-8.32324 -52.4717 -15.2412 -105.321 -19.1758 -158.32c-3.81836 -51.4072 -0.602539 -102.161 -0.845703 -153.526c-0.0888672 -18.457 -3.37988 -52.9619 13.8213 -66.4521
c14.998 -11.7627 41.2871 22.5322 50.6182 34.0293c34.8086 42.874 57.415 95.4111 80.9922 144.923c49.2832 103.491 92.3867 209.597 137.586 314.885c5.47559 12.748 42.3281 9.34082 36.293 -5.7041c-44.8164 -111.73 -91.9756 -222.877 -144.157 -331.382
c-33.3281 -69.3037 -91.1494 -220.16 -193.67 -190.473c-44.1396 12.7852 -53.7744 54.3057 -65.3457 93.7021c-13.8213 47.0518 -15.2451 98.8281 -15.4268 147.523c-0.364258 98.4268 15.749 195.267 32.6699 291.915c17.2383 98.4775 34.3975 197.101 41.0068 296.965
c3.11328 47.0283 3.30469 94.6357 0.666992 141.702c-2.17969 38.9531 -8.42969 84.2734 -35.5498 114.587c-62.0361 69.332 -172.071 -0.134766 -221.564 -50.207c-57.0459 -57.709 -93.4414 -136.315 -100.882 -217.098
c-3.72461 -40.3955 -2.14648 -84.334 12.7305 -122.521c6.72656 -17.2754 17.8877 -39.2471 36.2373 -46.6738c19.8193 -8.01953 35.2139 7.04883 48.3633 19.6426c33.1279 31.7324 57.8398 68.4082 80.1152 108.281c23.3438 41.7871 45.5439 85.9033 61.8398 130.935
c5.5918 15.4648 51.2666 15.2734 50.5713 -3.89746c-2.03027 -56 -12.7012 -107.664 -39.8779 -157.209c-26.0283 -47.4492 -59.0537 -99.0059 -110.54 -120.954c-47.2812 -20.1562 -104.351 -24.3389 -146.109 10.3291z" />
    <glyph glyph-name="I" unicode="&#xcd;" horiz-adv-x="773" 
d="M116.311 371.42c-34.8779 28.959 -45.0859 77.7051 -48.7178 120.696c-14.083 167.109 101.918 356.308 275.129 384.212c91.2891 14.7041 171.282 -32.0068 206.454 -116.892c38.4727 -92.8486 33.165 -201.545 23.8711 -299.505
c-9.9707 -105.083 -30.5742 -209.316 -47.1035 -313.513c-8.32324 -52.4717 -15.2412 -105.321 -19.1758 -158.32c-3.81836 -51.4072 -0.602539 -102.161 -0.845703 -153.526c-0.0888672 -18.457 -3.37988 -52.9619 13.8213 -66.4521
c14.998 -11.7627 41.2871 22.5322 50.6182 34.0293c34.8086 42.874 57.415 95.4111 80.9922 144.923c49.2832 103.491 92.3867 209.597 137.586 314.885c5.47559 12.748 42.3281 9.34082 36.293 -5.7041c-44.8164 -111.73 -91.9756 -222.877 -144.157 -331.382
c-33.3281 -69.3037 -91.1494 -220.16 -193.67 -190.473c-44.1396 12.7852 -53.7744 54.3057 -65.3457 93.7021c-13.8213 47.0518 -15.2451 98.8281 -15.4268 147.523c-0.364258 98.4268 15.749 195.267 32.6699 291.915c17.2383 98.4775 34.3975 197.101 41.0068 296.965
c3.11328 47.0283 3.30469 94.6357 0.666992 141.702c-2.17969 38.9531 -8.42969 84.2734 -35.5498 114.587c-62.0361 69.332 -172.071 -0.134766 -221.564 -50.207c-57.0459 -57.709 -93.4414 -136.315 -100.882 -217.098
c-3.72461 -40.3955 -2.14648 -84.334 12.7305 -122.521c6.72656 -17.2754 17.8877 -39.2471 36.2373 -46.6738c19.8193 -8.01953 35.2139 7.04883 48.3633 19.6426c33.1279 31.7324 57.8398 68.4082 80.1152 108.281c23.3438 41.7871 45.5439 85.9033 61.8398 130.935
c5.5918 15.4648 51.2666 15.2734 50.5713 -3.89746c-2.03027 -56 -12.7012 -107.664 -39.8779 -157.209c-26.0283 -47.4492 -59.0537 -99.0059 -110.54 -120.954c-47.2812 -20.1562 -104.351 -24.3389 -146.109 10.3291z" />
    <glyph glyph-name="J" unicode="J" horiz-adv-x="659" 
d="M114.129 345.093c-38.459 13.6533 -75.168 38.2451 -91.9395 76.9229c-19.7822 45.6328 -4.24805 98.8418 22.0508 138.411c54.791 82.4434 148.027 124.202 234.028 165.905c35.084 17.0098 70.3779 34.8037 102.838 56.6543
c-2.82422 10.7969 -5.80273 21.5518 -9.1123 32.2041c-8.58398 27.6104 48.8125 30.248 61.3877 14.751c0.78418 -0.96582 1.52148 -1.94629 2.28711 -2.91699c33.207 32.208 71.6377 81.7383 46.3936 119.702c-30.7617 46.2588 -109.294 29.3564 -148.687 6.42285
c-23.5723 -13.7236 -44.9414 -33.4502 -58.6602 -57.2051c-6.99219 -12.1182 -12.7988 -25.7578 -11.9492 -40.0557c0.541016 -9.11133 7.32812 -30.8818 19.6699 -29.043c19.1992 2.86133 35.8818 -17.4717 10.2969 -21.2852
c-22.8916 -3.41211 -46.3711 3.33789 -59.8193 23.2646c-15.2402 22.583 -8.22949 50.8936 4.45801 72.9863c26.8311 46.7207 76.4131 78.1309 128.25 89.6934c42.7764 9.54102 95.6914 8.16406 132.381 -18.6719c46.0762 -33.7021 25.2432 -86.7148 -3.28711 -124.921
c-12.5938 -16.8604 -26.7607 -31.8486 -42.0664 -45.4414c39 -64.4775 47.4531 -143.057 55.6875 -217.416c10.5166 -94.9629 16.4443 -190.201 17.5361 -285.738c0.569336 -49.6797 0.671875 -100.62 -1.49902 -151.668c53.6201 29.6592 105.471 62.0684 152.032 102.754
c10.1152 8.83594 46.4688 1.125 32.8105 -10.9316c-56.5703 -49.9414 -120.749 -87.8584 -186.501 -123.367c-6.18457 -99.043 -22.3818 -197.619 -61.9697 -287.326c-27.8203 -63.0439 -75.8896 -119.922 -144.423 -139.064
c-58.5068 -16.3418 -135.508 -7.18848 -174.013 44.6904c-37.9961 51.1973 -23.6846 120.155 10.4326 169.103c39.4346 56.5791 103.884 95.4482 161.873 130.69c31.8535 19.3574 64.7432 37.0762 97.8711 54.417c9.5459 100.7 8.28125 203.444 5.96582 303.005
c-2.79102 120.207 -4.10742 245.53 -30.6914 363.936c-49.8057 -30.0469 -104.648 -53.3633 -155.523 -79.793c-48.1768 -25.0293 -95.4385 -53.9463 -131.693 -95.0234c-37.4785 -42.459 -67.8057 -106.932 -35.6025 -160.957
c25.9814 -43.5889 77.874 -55.375 121.112 -31.2471c22.5879 12.6074 39.8965 31.3438 52.5693 53.7031c13.7744 24.292 20.2959 51.627 34.1553 75.666c6.19922 10.75 32.335 12.1787 38.0488 0c23.8203 -50.7588 -7.46875 -109.396 -47.6543 -142.239
c-40.9883 -33.4971 -98.1367 -48.6445 -149.045 -30.5703zM391.68 -47.7158c7.4541 33.9072 13.0186 68.3545 17.2012 103.111c-17.6445 -9.65332 -35.1719 -19.5029 -52.4287 -29.791c-54.4834 -32.4746 -107.011 -70.6904 -145.726 -121.636
c-33.2217 -43.7148 -49.8115 -113.71 -8.90723 -158.703c39.8359 -43.8223 95.3838 -5.14941 122.695 32.1377c36.6377 50.0205 54.0625 115.272 67.165 174.881z" />
    <glyph glyph-name="K" unicode="K" horiz-adv-x="1100" 
d="M203.373 557.611c-54.8984 11.0254 -75.6709 84.1973 -75.9785 132.505c-0.3125 47.6357 22.2705 99.5234 61.7139 127.694c40.9229 29.2256 98.7812 29.2773 145.329 15.9043c111.66 -32.0771 163.903 -136.077 186.953 -241.711
c20.2637 -92.8438 27.0176 -189.058 28.9551 -284.721c17.2939 26.5088 39.2607 50.2168 60.9014 73.4395c43.0098 46.1562 82.915 95.001 125.243 141.782c38.6963 42.7715 77.9619 93.3613 90.6074 151.028c5.36328 24.46 4.47168 49.6992 -3.23926 73.4727
c-6.80078 20.9727 -23.8008 39.1865 -27.834 60.4111c-2.33887 12.3047 23.6895 14.3584 29.8184 12.9482c55.9727 -12.8643 83.252 -69.2383 80.8994 -123.488c-2.74512 -63.2217 -39.1123 -115.479 -81.9727 -159.202
c-49.6992 -50.707 -103.239 -97.208 -155.038 -145.665c-42.3564 -39.6211 -88.624 -81.5059 -110.04 -136.587c94.9814 -6.12891 129.113 -109.274 145.441 -189.263c16.6133 -81.4033 26.3408 -163.46 54.8145 -241.95
c6.38574 -17.6123 12.3604 -35.6631 21.5557 -52.0801c9.01855 -16.0996 16.3242 -30.1221 35.8828 -21.2949c36.8438 16.6318 62.7695 61.6533 83.168 94.6602c82.1641 132.95 122.023 288.895 222.77 410.759c7.41699 8.97168 38.4209 3.19238 28.0859 -9.35938
c-61.3076 -74.4248 -99.9766 -163.18 -139.359 -250.333c-34.0283 -75.3115 -70.0459 -148.788 -119.688 -215.23c-20.585 -27.5498 -46.4873 -54.9131 -81.9912 -60.8691c-39.6865 -6.65625 -78.7188 10.2178 -104.784 39.7373
c-57.7227 65.3594 -72.4873 156.994 -85.2119 240.287c-6.44629 42.2119 -12.501 84.7646 -21.2295 126.57c-4.54688 21.7754 -10.6758 43.042 -15.9131 64.6211c-4.48145 18.4844 -9.47168 43.2617 -32.1992 44.4707
c0.00976562 -13.2988 -0.0185547 -26.5791 -0.0927734 -39.8076c-0.369141 -66.4941 -2.21289 -132.965 -3.95898 -199.431c-1.79688 -68.3701 -1.88574 -136.624 -14.5635 -203.906c-5.34473 -28.3711 -66.4375 -28.1426 -71.9131 0
c-11.6787 60.0146 -10.6611 120.226 -9.48926 181.234c1.16211 60.4443 2.55762 120.889 2.9873 181.347c0.751953 105.387 -1.58691 210.927 -12.3887 315.828c-9.05078 87.9238 -16.3564 190.271 -64.1045 267.244c-19.7354 31.8164 -50.6318 57.793 -87.793 65.8916
c-42.6689 9.29883 -85.4033 -16.3701 -106.418 -52.873c-23.5918 -40.9746 -21.0898 -94.6924 -1.68555 -136.698c10.7783 -23.3252 37.7119 -56.1494 57.6113 -20.5615c10.3584 18.5312 15.124 39.6211 19.5488 60.1924c5.83496 27.1533 70.9092 22.7842 62.3906 -4.8125
c-9.18164 -29.748 -20.623 -58.6797 -48.1357 -75.8525c-20.3477 -12.6963 -45.6289 -21.1543 -69.6543 -16.332z" />
    <glyph glyph-name="L" unicode="L" horiz-adv-x="874" 
d="M242.851 618.396c-52.3926 22.4805 -79.0645 73.3447 -79.4189 129.191c-0.700195 110.376 110.199 191.434 213.2 197.423c42.832 2.49219 88.5303 -6.73633 121.98 -35.0332c42.9912 -36.3672 60.2344 -94.2578 73.248 -146.743
c30.4111 -122.672 24.5293 -255.249 12.8594 -380.096c-10.5771 -113.168 -26.2656 -225.673 -53.6846 -335.938c125.943 53.0645 252.177 105.312 364.285 185.365c11.2725 8.04785 44.5635 -2.33789 26.6113 -15.1699
c-122.316 -87.4199 -261.442 -142.253 -398.836 -200.718c-1.16699 -4.32227 -2.30566 -8.65918 -3.51465 -12.9766c-29.9443 -107.15 -74.21 -217.882 -157.597 -295.061c-41.6328 -38.5381 -93.3711 -67.418 -151.201 -68.9912
c-46.1748 -1.25586 -96.3633 20.1045 -113.321 66.2646c-17.1455 46.6689 16.0107 89.4219 46.3096 121.648c37.9727 40.3906 84.4229 72.2725 132.371 99.626c43.4062 24.7588 88.1758 46.7725 133.604 67.4512c3.87891 12.6777 7.58984 25.3975 11.1426 38.1318
c28.6982 102.885 46.3242 208.999 60.6592 314.735c14.4375 106.479 26.4199 214.068 24.8281 321.672c-0.755859 51.1836 -1.60547 103.79 -7.9541 154.613c-3.12305 24.9961 -7.82324 49.9785 -26.168 68.375c-14.6992 14.7461 -33.7344 24.1328 -54.0537 28.2783
c-85.7676 17.4902 -175.241 -46.4365 -188.899 -131.887c-6.81934 -42.6689 6.54492 -85.5898 39.3184 -114.176c23.6895 -20.665 53.335 -30.584 81.9346 -14.5176c14.0361 7.88867 34.0938 8.41113 48.6484 1.65234c9.26074 -4.29883 22.1904 -17.8398 9.54004 -27.2412
c-47.9951 -35.6533 -111.403 -39.2666 -165.892 -15.8809zM307.15 -225.714c41.1611 56.7842 69.6494 120.935 91.9521 187.172c-20.8838 -9.92871 -41.6045 -20.1836 -62.0684 -30.9521c-42.1553 -22.1816 -83.4658 -46.8281 -120.132 -77.4121
c-32.1338 -26.7979 -79.7227 -67.0488 -80.5254 -112.631c-0.700195 -39.6865 43.8779 -67.502 79.5596 -52.084c37.5713 16.2344 67.8281 53.6475 91.2139 85.9072z" />
    <glyph glyph-name="M" unicode="M" horiz-adv-x="1538" 
d="M203.378 557.611c-54.9033 11.0254 -75.6709 84.1963 -75.9834 132.48c-0.3125 47.6357 22.2705 99.5234 61.7139 127.694c40.9229 29.2256 98.7812 29.2773 145.329 15.9043c111.66 -32.0771 163.903 -136.077 186.953 -241.711
c24.124 -110.549 29.1279 -225.878 29.6084 -339.358c17.6396 110.479 40.4697 235.938 107.342 328.314c27.9697 38.6406 70.6484 67.5957 120.343 56.9531c45.4365 -9.72754 76.2168 -50.7998 90.6592 -92.6797c40.1064 -116.3 36.2832 -244.083 33.8281 -365.447
c-0.705078 -34.8779 -1.76465 -69.7324 -3.00586 -104.578c24.5059 111.529 53.5215 221.962 92.5449 329.411c30.2432 83.2744 64.7529 167.613 115.185 240.94c36.7871 53.4941 97.5205 110.849 166.992 77.1982c74.6855 -36.1758 93.6133 -122.4 92.46 -199.312
c-1.41406 -94.5898 -24.4775 -189.133 -38.9199 -282.346c-14.7227 -95.0098 -33.2305 -190.444 -42.3232 -286.178c-4.47656 -47.1738 -5.37305 -95.3506 0.639648 -142.459c1.47949 -11.6045 4.74707 -38.0059 14.1943 -46.0117
c15.0684 -12.7666 40.2236 18.083 47.7393 28.9502c23.1572 33.4971 38.4492 73.916 53.4844 111.529c15.7217 39.3311 29.7158 79.3115 44.0508 119.161c28.4463 79.0879 59.2822 157.62 107.179 227.241c7.94922 11.5576 44.1621 6.31055 35.9375 -5.64844
c-53.9746 -78.4531 -86.1035 -168.071 -117.868 -257.134c-15.9639 -44.7744 -31.7549 -89.6465 -50.8281 -133.221c-16.4072 -37.4834 -33.9395 -79.4941 -68.4912 -103.986c-29.7061 -21.0615 -66.7266 -26.2617 -101.134 -14.2188
c-41.1523 14.4053 -60.0479 49.0732 -70.2188 89.2031c-22.7461 89.7627 2.3623 188.264 16.7256 277.551c15.4277 95.9336 33.1514 191.429 55.6367 285.972c20.0107 84.1475 48.9746 182.803 23.3105 268.561c-4.53711 15.1611 -7.8418 33.6553 -20.585 44.3496
c-18.4805 15.502 -43.3271 6.10547 -60.9248 -5.79785c-36.3301 -24.5625 -61.0049 -66.2236 -82.3418 -103.496c-44.7598 -78.1963 -77.5703 -163.856 -105.933 -249.162c-51.5752 -155.118 -84.4834 -315.371 -114.829 -475.806
c-0.933594 -28.0674 -1.46094 -56.4336 -7.13672 -83.876c-7.96387 -38.4814 -97.4375 -41.3564 -101.82 0.000976562c-3.54297 33.3896 0.424805 67.4463 2.38574 100.905c1.97461 33.6367 3.94434 67.2686 5.91895 100.905
c3.74316 63.8047 7.95312 127.572 11.7715 191.368c6.59082 110.119 15.1748 220.463 2.30566 330.447c-4.33691 37.0586 -8.50488 131.083 -69.5234 102.497c-44.9053 -21.0332 -70.9756 -80.1514 -88.583 -123.432c-73.2295 -179.975 -79.5635 -379.862 -102.356 -572.099
c-1.61035 -41.6279 -4.64941 -83.0879 -12.3936 -124.188c-5.34473 -28.3711 -66.4375 -28.1426 -71.9131 0c-11.6787 60.0146 -10.6611 120.226 -9.48926 181.234c1.16211 60.4443 2.55273 120.889 2.9873 181.347c0.751953 105.387 -1.58691 210.927 -12.3887 315.828
c-9.05566 87.9238 -16.3564 190.271 -64.1045 267.244c-19.7354 31.8164 -50.6318 57.793 -87.793 65.8916c-42.6689 9.29883 -85.4033 -16.3701 -106.418 -52.873c-23.5918 -40.9746 -21.0898 -94.6924 -1.68066 -136.698
c10.7783 -23.3252 37.7119 -56.1494 57.6113 -20.5615c10.3584 18.5312 15.124 39.6211 19.5488 60.1924c5.83984 27.1533 70.9102 22.7842 62.3916 -4.8125c-9.18652 -29.748 -20.623 -58.6797 -48.1357 -75.8525c-20.3477 -12.6963 -45.6289 -21.1543 -69.6543 -16.332z
" />
    <glyph glyph-name="N" unicode="N" horiz-adv-x="1232" 
d="M203.373 557.611c-54.9033 11.0254 -75.6738 84.1924 -75.9814 132.505c-0.3125 47.6357 22.2705 99.5234 61.7139 127.694c40.9229 29.2256 98.7812 29.2773 145.329 15.9043c111.66 -32.0771 163.903 -136.077 186.953 -241.711
c28.1289 -128.889 30.2812 -264.285 29.5527 -395.662c-0.102539 -18.4102 -0.335938 -36.8105 -0.629883 -55.2158c26.0938 132.105 57.5928 263.175 96.2568 391.616c28.208 93.6982 56.3135 198.833 114.521 279.111c21.2764 29.3467 50.0908 55.9209 86.752 63.1377
c36.6992 7.22559 75.3301 -6.15723 104.103 -29.0947c37.9268 -30.2383 49.5967 -77.8135 56.9814 -123.638c8.69141 -53.9697 11.2959 -107.869 9.64844 -162.46c-3.23438 -107.436 -21.3174 -213.415 -41.6689 -318.736
c-20.0625 -103.827 -43.9102 -208.317 -54.002 -313.718c-4.6543 -48.583 -11.5205 -102.763 0.999023 -150.734c4.78906 -18.3545 15.0068 -43.4727 31.5127 -54.3672c17.5137 -11.5576 34.5654 1.76465 47.0146 14.7744c33.0068 34.4912 52.4951 87.4951 71.6523 130.486
c20.7529 46.5762 38.7939 94.2588 56.3682 142.104c18.083 49.2324 35.6201 98.6787 54.707 147.537c16.9346 43.3506 33.585 87.3643 64.8691 122.648c8.93848 10.0781 44.8574 3.1748 32.4971 -10.8291c-37.4268 -42.4033 -54.8516 -101.219 -74.2881 -153.326
c-20.3008 -54.4277 -39.3174 -109.326 -59.9023 -163.646c-19.9873 -52.7471 -41.0908 -105.209 -66.2041 -155.757c-18.3633 -36.96 -39.0234 -82.9287 -78.1729 -102.067c-38.2021 -18.6719 -83.7041 -8.97656 -118.919 11.8652
c-41.5117 24.5674 -57.9287 71.7451 -66.1631 116.79c-18.5127 101.255 8.48633 209.965 28.1611 309.25c20.7109 104.519 44.1348 208.71 60.5752 314.021c15.7354 100.803 29.9961 207.44 21.5098 309.602c-3.11816 37.5293 -20.0439 112.183 -72.9912 98.123
c-43.6211 -11.5811 -71.0449 -62.6426 -89.6748 -99.5703c-46.9023 -92.9795 -76.3008 -195.551 -104.191 -295.522c-51.4629 -184.47 -84.5625 -372.365 -118.302 -560.485c-1.79688 -35.2568 -4.97559 -70.3779 -11.543 -105.237
c-5.34473 -28.3711 -66.4375 -28.1426 -71.9131 0c-11.6787 60.0146 -10.6611 120.226 -9.48926 181.234c1.16211 60.4443 2.55762 120.889 2.9873 181.347c0.751953 105.387 -1.58691 210.927 -12.3887 315.828c-9.05078 87.9238 -16.3564 190.271 -64.1045 267.244
c-19.7354 31.8164 -50.6318 57.793 -87.793 65.8916c-42.6689 9.29883 -85.4033 -16.3701 -106.418 -52.873c-23.5918 -40.9746 -21.0898 -94.6924 -1.68555 -136.698c10.7783 -23.3252 37.7119 -56.1494 57.6113 -20.5615c10.3584 18.5312 15.124 39.6211 19.5488 60.1924
c5.83496 27.1533 70.9092 22.7842 62.3906 -4.8125c-9.18164 -29.748 -20.623 -58.6797 -48.1357 -75.8525c-20.3477 -12.6963 -45.6289 -21.1543 -69.6543 -16.332z" />
    <glyph glyph-name="O" unicode="O" horiz-adv-x="891" 
d="M134.218 374.855c-24.3525 41.8379 -39.5605 88.7373 -45.2783 137.105c-16.3145 138.07 45.1982 289.547 169.466 359.336c62.5771 35.1445 137.132 43.0986 205.119 19.1758c69.626 -24.502 124.348 -78.4717 159.949 -142.132
c40.1113 -71.7129 56.3652 -154.876 64.8418 -235.784c9.49023 -90.5801 6.94141 -182.057 -4.32715 -272.352c-2.00684 -16.0713 -4.33594 -32.1377 -6.81934 -48.1953c84.9922 10.7871 166.344 42.0146 234.919 98.0762c9.0459 7.39355 41.7959 0.9375 29.3467 -9.78027
c-28.9824 -24.959 -60.7002 -45.96 -95.2002 -62.54c-54.3896 -26.1396 -112.943 -41.8379 -172.688 -48.3594c-10.6523 -63.1797 -24.8516 -126 -42.2207 -187.387c-21.3418 -75.4277 -50.0449 -155.817 -102.787 -215.473
c-53.7549 -60.8037 -129.733 -72.3936 -205.008 -48.2275c-71.502 22.9521 -133.31 92.3115 -162.414 159.973c-32.5254 75.624 -44.0547 159.207 -47.126 240.895c-3.19727 85.1279 3.2168 172.002 20.2266 255.669zM599.776 28.7998
c12.6641 45.0918 23.2949 91.0547 31.6084 137.514c-4.52344 -0.172852 -9.04688 -0.303711 -13.5703 -0.374023c-84.3721 -1.30664 -174.368 12.5801 -254.375 39.626c-47.4912 16.0527 -94.2217 37.3984 -135.099 66.6611
c-6.96484 -68.001 -7.34277 -136.712 -2.50195 -202.926c4.74707 -64.8838 15.334 -128.082 38.7998 -188.891c21.7334 -56.3135 53.7227 -109.257 110.577 -135.883c63.0811 -29.543 117.919 40.4004 145.576 87.7275c35.7607 61.1865 59.8838 128.534 78.9844 196.545z
M185.995 734.729c-45.3105 -83.8955 -56.333 -187.104 -29.5303 -278.931c19.8242 53.8018 49.9697 102.343 96.7559 139.704c58.666 46.8467 139.037 50.4971 196.214 -1.08789c52.1816 -47.0801 65.8867 -128.479 39.1348 -192.387
c-27.2227 -65.0283 -122.261 -78.2295 -163.81 -19.3867c-15.4463 21.874 56.584 38.0156 71.1006 11.1758c14.7412 -27.2412 43.5186 8.58008 52.0283 24.2598c31.1855 57.4658 7.17383 141.734 -51.5898 172.01c-65.0654 33.5244 -98.8604 -48.2285 -117.452 -96.877
c-20.7529 -54.3154 -35.0459 -111.931 -44.0732 -170.676c71.0264 -70.6387 175.381 -110.138 271.46 -126.298c42.7393 -7.19336 86.0713 -9.9707 128.871 -7.88867c15.5439 95.6445 21.1826 193.109 14.3066 289.169c-9.48047 132.45 -41.5205 291.204 -163.912 365.862
c-54.6045 33.3096 -116.412 43.3408 -175.503 15.1328c-53.498 -25.5381 -96.1152 -72.1465 -124.001 -123.782z" />
    <glyph glyph-name="O" unicode="&#xd6;" horiz-adv-x="891" 
d="M134.218 374.855c-24.3525 41.8379 -39.5605 88.7373 -45.2783 137.105c-16.3145 138.07 45.1982 289.547 169.466 359.336c62.5771 35.1445 137.132 43.0986 205.119 19.1758c69.626 -24.502 124.348 -78.4717 159.949 -142.132
c40.1113 -71.7129 56.3652 -154.876 64.8418 -235.784c9.49023 -90.5801 6.94141 -182.057 -4.32715 -272.352c-2.00684 -16.0713 -4.33594 -32.1377 -6.81934 -48.1953c84.9922 10.7871 166.344 42.0146 234.919 98.0762c9.0459 7.39355 41.7959 0.9375 29.3467 -9.78027
c-28.9824 -24.959 -60.7002 -45.96 -95.2002 -62.54c-54.3896 -26.1396 -112.943 -41.8379 -172.688 -48.3594c-10.6523 -63.1797 -24.8516 -126 -42.2207 -187.387c-21.3418 -75.4277 -50.0449 -155.817 -102.787 -215.473
c-53.7549 -60.8037 -129.733 -72.3936 -205.008 -48.2275c-71.502 22.9521 -133.31 92.3115 -162.414 159.973c-32.5254 75.624 -44.0547 159.207 -47.126 240.895c-3.19727 85.1279 3.2168 172.002 20.2266 255.669zM599.776 28.7998
c12.6641 45.0918 23.2949 91.0547 31.6084 137.514c-4.52344 -0.172852 -9.04688 -0.303711 -13.5703 -0.374023c-84.3721 -1.30664 -174.368 12.5801 -254.375 39.626c-47.4912 16.0527 -94.2217 37.3984 -135.099 66.6611
c-6.96484 -68.001 -7.34277 -136.712 -2.50195 -202.926c4.74707 -64.8838 15.334 -128.082 38.7998 -188.891c21.7334 -56.3135 53.7227 -109.257 110.577 -135.883c63.0811 -29.543 117.919 40.4004 145.576 87.7275c35.7607 61.1865 59.8838 128.534 78.9844 196.545z
M185.995 734.729c-45.3105 -83.8955 -56.333 -187.104 -29.5303 -278.931c19.8242 53.8018 49.9697 102.343 96.7559 139.704c58.666 46.8467 139.037 50.4971 196.214 -1.08789c52.1816 -47.0801 65.8867 -128.479 39.1348 -192.387
c-27.2227 -65.0283 -122.261 -78.2295 -163.81 -19.3867c-15.4463 21.874 56.584 38.0156 71.1006 11.1758c14.7412 -27.2412 43.5186 8.58008 52.0283 24.2598c31.1855 57.4658 7.17383 141.734 -51.5898 172.01c-65.0654 33.5244 -98.8604 -48.2285 -117.452 -96.877
c-20.7529 -54.3154 -35.0459 -111.931 -44.0732 -170.676c71.0264 -70.6387 175.381 -110.138 271.46 -126.298c42.7393 -7.19336 86.0713 -9.9707 128.871 -7.88867c15.5439 95.6445 21.1826 193.109 14.3066 289.169c-9.48047 132.45 -41.5205 291.204 -163.912 365.862
c-54.6045 33.3096 -116.412 43.3408 -175.503 15.1328c-53.498 -25.5381 -96.1152 -72.1465 -124.001 -123.782z" />
    <glyph glyph-name="O" unicode="&#xd5;" horiz-adv-x="891" 
d="M134.218 374.855c-24.3525 41.8379 -39.5605 88.7373 -45.2783 137.105c-16.3145 138.07 45.1982 289.547 169.466 359.336c62.5771 35.1445 137.132 43.0986 205.119 19.1758c69.626 -24.502 124.348 -78.4717 159.949 -142.132
c40.1113 -71.7129 56.3652 -154.876 64.8418 -235.784c9.49023 -90.5801 6.94141 -182.057 -4.32715 -272.352c-2.00684 -16.0713 -4.33594 -32.1377 -6.81934 -48.1953c84.9922 10.7871 166.344 42.0146 234.919 98.0762c9.0459 7.39355 41.7959 0.9375 29.3467 -9.78027
c-28.9824 -24.959 -60.7002 -45.96 -95.2002 -62.54c-54.3896 -26.1396 -112.943 -41.8379 -172.688 -48.3594c-10.6523 -63.1797 -24.8516 -126 -42.2207 -187.387c-21.3418 -75.4277 -50.0449 -155.817 -102.787 -215.473
c-53.7549 -60.8037 -129.733 -72.3936 -205.008 -48.2275c-71.502 22.9521 -133.31 92.3115 -162.414 159.973c-32.5254 75.624 -44.0547 159.207 -47.126 240.895c-3.19727 85.1279 3.2168 172.002 20.2266 255.669zM599.776 28.7998
c12.6641 45.0918 23.2949 91.0547 31.6084 137.514c-4.52344 -0.172852 -9.04688 -0.303711 -13.5703 -0.374023c-84.3721 -1.30664 -174.368 12.5801 -254.375 39.626c-47.4912 16.0527 -94.2217 37.3984 -135.099 66.6611
c-6.96484 -68.001 -7.34277 -136.712 -2.50195 -202.926c4.74707 -64.8838 15.334 -128.082 38.7998 -188.891c21.7334 -56.3135 53.7227 -109.257 110.577 -135.883c63.0811 -29.543 117.919 40.4004 145.576 87.7275c35.7607 61.1865 59.8838 128.534 78.9844 196.545z
M185.995 734.729c-45.3105 -83.8955 -56.333 -187.104 -29.5303 -278.931c19.8242 53.8018 49.9697 102.343 96.7559 139.704c58.666 46.8467 139.037 50.4971 196.214 -1.08789c52.1816 -47.0801 65.8867 -128.479 39.1348 -192.387
c-27.2227 -65.0283 -122.261 -78.2295 -163.81 -19.3867c-15.4463 21.874 56.584 38.0156 71.1006 11.1758c14.7412 -27.2412 43.5186 8.58008 52.0283 24.2598c31.1855 57.4658 7.17383 141.734 -51.5898 172.01c-65.0654 33.5244 -98.8604 -48.2285 -117.452 -96.877
c-20.7529 -54.3154 -35.0459 -111.931 -44.0732 -170.676c71.0264 -70.6387 175.381 -110.138 271.46 -126.298c42.7393 -7.19336 86.0713 -9.9707 128.871 -7.88867c15.5439 95.6445 21.1826 193.109 14.3066 289.169c-9.48047 132.45 -41.5205 291.204 -163.912 365.862
c-54.6045 33.3096 -116.412 43.3408 -175.503 15.1328c-53.498 -25.5381 -96.1152 -72.1465 -124.001 -123.782z" />
    <glyph glyph-name="O" unicode="&#xd4;" horiz-adv-x="891" 
d="M134.218 374.855c-24.3525 41.8379 -39.5605 88.7373 -45.2783 137.105c-16.3145 138.07 45.1982 289.547 169.466 359.336c62.5771 35.1445 137.132 43.0986 205.119 19.1758c69.626 -24.502 124.348 -78.4717 159.949 -142.132
c40.1113 -71.7129 56.3652 -154.876 64.8418 -235.784c9.49023 -90.5801 6.94141 -182.057 -4.32715 -272.352c-2.00684 -16.0713 -4.33594 -32.1377 -6.81934 -48.1953c84.9922 10.7871 166.344 42.0146 234.919 98.0762c9.0459 7.39355 41.7959 0.9375 29.3467 -9.78027
c-28.9824 -24.959 -60.7002 -45.96 -95.2002 -62.54c-54.3896 -26.1396 -112.943 -41.8379 -172.688 -48.3594c-10.6523 -63.1797 -24.8516 -126 -42.2207 -187.387c-21.3418 -75.4277 -50.0449 -155.817 -102.787 -215.473
c-53.7549 -60.8037 -129.733 -72.3936 -205.008 -48.2275c-71.502 22.9521 -133.31 92.3115 -162.414 159.973c-32.5254 75.624 -44.0547 159.207 -47.126 240.895c-3.19727 85.1279 3.2168 172.002 20.2266 255.669zM599.776 28.7998
c12.6641 45.0918 23.2949 91.0547 31.6084 137.514c-4.52344 -0.172852 -9.04688 -0.303711 -13.5703 -0.374023c-84.3721 -1.30664 -174.368 12.5801 -254.375 39.626c-47.4912 16.0527 -94.2217 37.3984 -135.099 66.6611
c-6.96484 -68.001 -7.34277 -136.712 -2.50195 -202.926c4.74707 -64.8838 15.334 -128.082 38.7998 -188.891c21.7334 -56.3135 53.7227 -109.257 110.577 -135.883c63.0811 -29.543 117.919 40.4004 145.576 87.7275c35.7607 61.1865 59.8838 128.534 78.9844 196.545z
M185.995 734.729c-45.3105 -83.8955 -56.333 -187.104 -29.5303 -278.931c19.8242 53.8018 49.9697 102.343 96.7559 139.704c58.666 46.8467 139.037 50.4971 196.214 -1.08789c52.1816 -47.0801 65.8867 -128.479 39.1348 -192.387
c-27.2227 -65.0283 -122.261 -78.2295 -163.81 -19.3867c-15.4463 21.874 56.584 38.0156 71.1006 11.1758c14.7412 -27.2412 43.5186 8.58008 52.0283 24.2598c31.1855 57.4658 7.17383 141.734 -51.5898 172.01c-65.0654 33.5244 -98.8604 -48.2285 -117.452 -96.877
c-20.7529 -54.3154 -35.0459 -111.931 -44.0732 -170.676c71.0264 -70.6387 175.381 -110.138 271.46 -126.298c42.7393 -7.19336 86.0713 -9.9707 128.871 -7.88867c15.5439 95.6445 21.1826 193.109 14.3066 289.169c-9.48047 132.45 -41.5205 291.204 -163.912 365.862
c-54.6045 33.3096 -116.412 43.3408 -175.503 15.1328c-53.498 -25.5381 -96.1152 -72.1465 -124.001 -123.782z" />
    <glyph glyph-name="O" unicode="&#xd3;" horiz-adv-x="891" 
d="M134.218 374.855c-24.3525 41.8379 -39.5605 88.7373 -45.2783 137.105c-16.3145 138.07 45.1982 289.547 169.466 359.336c62.5771 35.1445 137.132 43.0986 205.119 19.1758c69.626 -24.502 124.348 -78.4717 159.949 -142.132
c40.1113 -71.7129 56.3652 -154.876 64.8418 -235.784c9.49023 -90.5801 6.94141 -182.057 -4.32715 -272.352c-2.00684 -16.0713 -4.33594 -32.1377 -6.81934 -48.1953c84.9922 10.7871 166.344 42.0146 234.919 98.0762c9.0459 7.39355 41.7959 0.9375 29.3467 -9.78027
c-28.9824 -24.959 -60.7002 -45.96 -95.2002 -62.54c-54.3896 -26.1396 -112.943 -41.8379 -172.688 -48.3594c-10.6523 -63.1797 -24.8516 -126 -42.2207 -187.387c-21.3418 -75.4277 -50.0449 -155.817 -102.787 -215.473
c-53.7549 -60.8037 -129.733 -72.3936 -205.008 -48.2275c-71.502 22.9521 -133.31 92.3115 -162.414 159.973c-32.5254 75.624 -44.0547 159.207 -47.126 240.895c-3.19727 85.1279 3.2168 172.002 20.2266 255.669zM599.776 28.7998
c12.6641 45.0918 23.2949 91.0547 31.6084 137.514c-4.52344 -0.172852 -9.04688 -0.303711 -13.5703 -0.374023c-84.3721 -1.30664 -174.368 12.5801 -254.375 39.626c-47.4912 16.0527 -94.2217 37.3984 -135.099 66.6611
c-6.96484 -68.001 -7.34277 -136.712 -2.50195 -202.926c4.74707 -64.8838 15.334 -128.082 38.7998 -188.891c21.7334 -56.3135 53.7227 -109.257 110.577 -135.883c63.0811 -29.543 117.919 40.4004 145.576 87.7275c35.7607 61.1865 59.8838 128.534 78.9844 196.545z
M185.995 734.729c-45.3105 -83.8955 -56.333 -187.104 -29.5303 -278.931c19.8242 53.8018 49.9697 102.343 96.7559 139.704c58.666 46.8467 139.037 50.4971 196.214 -1.08789c52.1816 -47.0801 65.8867 -128.479 39.1348 -192.387
c-27.2227 -65.0283 -122.261 -78.2295 -163.81 -19.3867c-15.4463 21.874 56.584 38.0156 71.1006 11.1758c14.7412 -27.2412 43.5186 8.58008 52.0283 24.2598c31.1855 57.4658 7.17383 141.734 -51.5898 172.01c-65.0654 33.5244 -98.8604 -48.2285 -117.452 -96.877
c-20.7529 -54.3154 -35.0459 -111.931 -44.0732 -170.676c71.0264 -70.6387 175.381 -110.138 271.46 -126.298c42.7393 -7.19336 86.0713 -9.9707 128.871 -7.88867c15.5439 95.6445 21.1826 193.109 14.3066 289.169c-9.48047 132.45 -41.5205 291.204 -163.912 365.862
c-54.6045 33.3096 -116.412 43.3408 -175.503 15.1328c-53.498 -25.5381 -96.1152 -72.1465 -124.001 -123.782z" />
    <glyph glyph-name="P" unicode="P" horiz-adv-x="1168" 
d="M203.383 557.611c-54.9033 11.0254 -75.6699 84.1973 -75.9873 132.505c-0.3125 47.6357 22.2705 99.5234 61.7139 127.694c40.9229 29.2256 98.7812 29.2773 145.329 15.9043c111.66 -32.0771 163.903 -136.077 186.953 -241.711
c28.124 -128.889 30.2803 -264.285 29.5518 -395.662c-0.0371094 -7.37012 -0.158203 -14.7363 -0.232422 -22.1064c5.63867 51.5703 11.207 103.15 17.3779 154.655c16.0859 134.215 38.249 270.334 92.9189 394.947c45.124 102.847 129.5 241.496 261.399 179.371
c119.152 -56.1221 139.136 -219.138 84.4102 -327.292c-30.374 -60.0195 -80.0635 -104.873 -139.304 -135.583c-21.916 -11.3564 -44.6201 -21.8223 -67.7402 -31.5361c30.2061 -9.625 57.8447 -26.3408 85.3389 -43.1689
c87.8496 -53.7695 187.789 -120.39 294.361 -80.0176c10.125 3.83691 30.3418 3.66895 37.9688 -5.67578c7.85156 -9.62012 0.144531 -18.2412 -9.95703 -21.6396c-94.3047 -31.7324 -194.099 1.94629 -276.939 49.3721c-45.7451 26.1865 -88.9746 62.1572 -138.305 81.3047
c-8.29492 3.2207 -16.6553 5.33984 -25.0391 6.72656c-35.541 -13.5322 -71.8193 -25.1787 -107.864 -34.8877c-14.3164 -3.85059 -33.833 -5.8623 -50.1377 -1.21777c-6.13379 -47.1826 -11.2588 -94.5098 -16.5146 -141.674
c-7.78613 -69.8125 -16.0713 -139.564 -24.5205 -209.293c-7.5293 -62.1807 -12.5381 -125.943 -30.9766 -186.089c-1.3584 -9.86328 -2.91309 -19.7129 -4.7666 -29.5342c-5.34473 -28.3711 -66.4375 -28.1426 -71.9131 0
c-11.6787 60.0146 -10.6611 120.226 -9.48926 181.234c1.16211 60.4443 2.55273 120.889 2.9873 181.347c0.751953 105.387 -1.58691 210.927 -12.3887 315.828c-9.05566 87.9238 -16.3564 190.271 -64.1045 267.244c-19.7354 31.8164 -50.6318 57.793 -87.793 65.8916
c-42.6641 9.29883 -85.4033 -16.3701 -106.418 -52.873c-23.5918 -40.9746 -21.0898 -94.6924 -1.68066 -136.698c10.7783 -23.3252 37.7119 -56.1494 57.6113 -20.5615c10.3584 18.5312 15.124 39.6211 19.5488 60.1924c5.83496 27.1533 70.9092 22.7842 62.3906 -4.8125
c-9.18652 -29.748 -20.623 -58.6797 -48.1357 -75.8525c-20.3477 -12.6963 -45.6289 -21.1543 -69.6543 -16.332zM714.897 753.491c-27.1621 -53.7969 -47.5918 -110.783 -63.3457 -168.898c-15.1523 -55.8701 -25.9678 -112.678 -34.6221 -169.873
c64.6924 21.9248 131.62 42.085 191.556 75.1797c56.0381 30.9385 96.6816 77.0479 122.645 135.396c22.6533 50.9082 30.1504 108.104 21.5615 163.161c-9.38672 60.1875 -59.0713 133.786 -128.897 99.9492c-52.1631 -25.2764 -83.9189 -85.4453 -108.896 -134.915z" />
    <glyph glyph-name="Q" unicode="Q" horiz-adv-x="891" 
d="M134.217 374.855c-24.3525 41.8379 -39.5654 88.7373 -45.2793 137.105c-16.3145 138.07 45.2031 289.547 169.467 359.336c62.5771 35.1445 137.132 43.0986 205.119 19.1758c69.626 -24.502 124.348 -78.4717 159.949 -142.132
c40.1064 -71.7129 56.3604 -154.876 64.8369 -235.784c9.49023 -90.5801 6.94141 -182.057 -4.32715 -272.352c-2.00684 -16.0713 -4.33594 -32.1377 -6.81934 -48.1953c84.9922 10.7871 166.344 42.0156 234.919 98.0771c9.0459 7.39355 41.791 0.9375 29.3467 -9.78027
c-28.9824 -24.959 -60.7002 -45.96 -95.2002 -62.54c-54.3896 -26.1396 -112.943 -41.8379 -172.688 -48.3594c-10.6523 -63.1797 -24.8516 -126 -42.2207 -187.387c-21.3418 -75.4277 -50.0449 -155.817 -102.787 -215.473
c-33.9258 -38.375 -76.707 -57.126 -122.568 -59.6797c32.8193 -14.0879 60.4629 -36.7646 84.9229 -68.4082c18.4004 -23.8018 36.5957 -47.0244 63.0488 -62.293c23.6611 -13.6582 52.2422 -20.5391 79.0635 -24.6465c29.3467 -4.49512 55.0664 11.9082 67.8984 38.5293
c10.7266 22.2568 16.8604 77.9209 -17.4062 84.9043c-24.9404 5.08301 -8.6543 24.1602 10.1016 20.8877c66.5918 -11.6182 66.3115 -87.6953 39.8633 -136.059c-34.2432 -62.624 -119.529 -54.6748 -178.919 -40.8535c-37.0303 8.61719 -73.0146 22.3408 -101.517 48.252
c-24.0771 21.8926 -41.0732 50.5576 -61.9854 75.2598c-19.9688 23.582 -48.1162 50.1143 -78.6162 58.8623c-40.1621 11.5205 -89.5713 -4.72363 -125.649 -21.9297c-6.32031 -3.01562 -17.7285 -4.91992 -23.7734 0
c-4.90625 3.99609 -7.0957 9.95703 -0.000976562 13.5518c46.4551 23.5264 93.3857 32.4375 143.458 31.8545c-64.1641 27.6895 -118.582 91.3027 -145.338 153.512c-32.5254 75.624 -44.0547 159.207 -47.126 240.895c-3.19727 85.1279 3.2168 172.002 20.2266 255.669z
M599.775 28.7998c12.6592 45.0918 23.293 91.0547 31.6113 137.514c-4.52344 -0.172852 -9.04688 -0.303711 -13.5703 -0.374023c-84.3721 -1.30664 -174.368 12.5801 -254.375 39.626c-47.4912 16.0527 -94.2217 37.3984 -135.099 66.6611
c-6.96875 -68.001 -7.3418 -136.712 -2.50098 -202.926c4.74219 -64.8838 15.3291 -128.082 38.7949 -188.891c21.7334 -56.3135 53.7227 -109.257 110.577 -135.883c63.0811 -29.543 117.919 40.4004 145.576 87.7275c35.7607 61.1865 59.8848 128.534 78.9854 196.545z
M185.988 734.729c-45.3066 -83.8955 -56.3281 -187.104 -29.5303 -278.931c19.8242 53.8018 49.9697 102.343 96.7559 139.704c58.666 46.8467 139.037 50.4971 196.214 -1.08789c52.1816 -47.0801 65.8867 -128.479 39.1348 -192.387
c-27.2227 -65.0283 -122.261 -78.2295 -163.81 -19.3867c-15.4463 21.874 56.584 38.0156 71.1055 11.1758c14.7363 -27.2412 43.5137 8.58008 52.0234 24.2598c31.1904 57.4658 7.17383 141.734 -51.5898 172.01c-65.0654 33.5244 -98.8604 -48.2285 -117.452 -96.877
c-20.7529 -54.3154 -35.0459 -111.931 -44.0732 -170.676c71.0264 -70.6387 175.381 -110.138 271.46 -126.298c42.7393 -7.19336 86.0713 -9.9707 128.871 -7.88867c15.5439 95.6445 21.1826 193.109 14.3066 289.169c-9.48047 132.45 -41.5205 291.204 -163.912 365.862
c-54.6045 33.3096 -116.412 43.3408 -175.503 15.1328c-53.498 -25.5381 -96.1152 -72.1465 -124.001 -123.782z" />
    <glyph glyph-name="R" unicode="R" horiz-adv-x="1227" 
d="M203.373 557.611c-54.8984 11.0254 -75.666 84.2031 -75.9785 132.506c-0.3125 47.6357 22.2705 99.5234 61.7139 127.694c40.9229 29.2256 98.7812 29.2773 145.329 15.9043c111.66 -32.0771 163.903 -136.077 186.953 -241.711
c28.1289 -128.889 30.2812 -264.285 29.5527 -395.662c-0.0371094 -7.37012 -0.158203 -14.7363 -0.232422 -22.1064c5.63867 51.5703 11.2031 103.15 17.3789 154.655c16.0859 134.215 38.249 270.334 92.9189 394.947c45.1191 102.847 129.495 241.496 261.395 179.371
c119.152 -56.1221 139.136 -219.138 84.4102 -327.292c-30.374 -60.0195 -80.0635 -104.873 -139.304 -135.583c-65.3086 -33.8516 -137.212 -60.4072 -208.178 -79.5225c-0.40625 -0.107422 -0.84082 -0.205078 -1.25195 -0.307617
c24.2871 -9.49902 47.7666 -22.1064 66.9189 -36.5771c37.5254 -28.3525 62.9463 -68.2441 80.502 -111.343c35.3965 -86.8926 42.1133 -184.241 65.7891 -274.583c10.6426 -40.6201 18.9844 -84.8057 35.8682 -123.391c5.96973 -13.6445 15.7354 -33.292 30.0332 -39.8926
c18.041 -8.32324 44.4375 1.78223 60.0371 11.3281c37.376 22.877 60.1836 65.4941 79.2568 103.355c20.4639 40.624 38.0947 82.5928 55.2725 124.692c34.2949 84.0449 67.2412 168.911 116.188 245.805c6.57715 10.3301 38.3047 5.98438 31.3682 -4.92871
c-59.333 -93.3574 -94.7852 -198.259 -138.229 -299.318c-31.2471 -72.6738 -67.376 -166.572 -146.31 -199.215c-37.9082 -15.6797 -82.2949 -14.8203 -119.839 1.50781c-38.6543 16.8135 -64.874 55.2998 -81.2959 92.8057
c-40.4424 92.3633 -47.8594 197.418 -67.5488 295.279c-9.04199 44.9277 -21.9111 88.8291 -43.4531 129.435c-9.04199 17.0381 -18.9893 34.1641 -30.79 49.4844c-11.5674 15.0254 -26.3271 23.166 -43.5049 28.0723
c-5.76465 -45.0029 -10.6562 -90.1221 -15.6699 -135.102c-7.78125 -69.8125 -16.0664 -139.564 -24.5156 -209.293c-7.53418 -62.1807 -12.5381 -125.943 -30.9766 -186.089c-1.3584 -9.86328 -2.91699 -19.7129 -4.76562 -29.5342
c-5.34473 -28.3711 -66.4375 -28.1426 -71.9131 0c-11.6787 60.0146 -10.6611 120.226 -9.48926 181.234c1.16211 60.4443 2.55273 120.889 2.9873 181.347c0.751953 105.387 -1.58691 210.927 -12.3887 315.828c-9.05566 87.9238 -16.3564 190.271 -64.1045 267.244
c-19.7354 31.8164 -50.6318 57.793 -87.793 65.8916c-42.6689 9.29883 -85.4033 -16.3701 -106.418 -52.873c-23.5918 -40.9746 -21.0898 -94.6924 -1.68555 -136.698c10.7783 -23.3252 37.7119 -56.1494 57.6113 -20.5615c10.3584 18.5312 15.124 39.6211 19.5488 60.1924
c5.83496 27.1533 70.9092 22.7842 62.3906 -4.8125c-9.18652 -29.748 -20.623 -58.6797 -48.1357 -75.8525c-20.3477 -12.6963 -45.6289 -21.1543 -69.6543 -16.332zM714.887 753.497c-27.1572 -53.7969 -47.5869 -110.783 -63.3457 -168.898
c-15.1523 -55.8701 -25.9678 -112.678 -34.6221 -169.873c64.6875 21.9248 131.62 42.085 191.556 75.1797c56.0381 30.9385 96.6816 77.0479 122.645 135.396c22.6533 50.9082 30.1504 108.104 21.5615 163.161c-9.38672 60.1875 -59.0664 133.786 -128.897 99.9492
c-52.1631 -25.2764 -83.9189 -85.4453 -108.896 -134.915z" />
    <glyph glyph-name="S" unicode="S" horiz-adv-x="725" 
d="M412.362 72.7041c-92.1992 131.919 -237.931 235.601 -296.802 387.334c-34.6025 89.208 -34.0752 201.484 20.5947 282.901c63.3945 94.4121 178.448 129.384 287.187 104.396c50.0117 -11.4922 96.9561 -35.8301 125.631 -79.7783
c25.8369 -39.5977 33.0156 -94.627 6.23145 -135.644c-24.3896 -37.3428 -62.0176 -63.0156 -107.328 -63.0859c-58.7969 -0.0888672 -104.822 37.6504 -128.008 89.6826c-14.8623 33.3477 65.9668 38.3984 80.2461 12.6133
c12.8975 -23.2881 28.96 -49.0918 54.166 -60.5049c22.2656 -10.083 49.0176 5.25098 62.4424 23.1426c38.0146 50.6602 11.9541 123.493 -34.0947 159.095c-52.6396 40.7041 -128.423 45.1572 -188.555 19.4375c-50.6934 -21.6826 -79.5596 -64.7295 -95.2295 -115.913
c-29.874 -97.5723 4.66309 -197.264 55.1045 -281.346c58.0078 -96.6992 142.776 -173.532 212.075 -261.694c9.87207 -12.5566 19.5156 -25.4404 28.7812 -38.6221c88.2969 42.6738 178.812 82.7334 252.284 143.779c8.49121 7.05273 39.9482 1.34375 28.0869 -9.35938
c-77.4912 -69.9434 -173.052 -110.596 -265.798 -155.948c45.0312 -69.1357 77.5947 -146.249 75.2793 -230.518c-2.53027 -92.1016 -45.083 -188.068 -133.151 -227.208c-68.6172 -30.4902 -161.442 -24.7676 -222.928 20.207
c-81.0811 59.3057 -62.2598 167.567 -15.2773 243.145c49.1152 79.0039 120.548 130.742 199.062 173.888zM383.859 -348.371c91.7139 31.7461 117 145.703 106.324 231.33c-7.81836 62.7734 -31.1484 117.233 -62.8525 167.259
c-100.835 -57.998 -219.03 -154.553 -217.522 -282.345c1.06445 -90.3887 91.084 -144.966 174.051 -116.244z" />
    <glyph glyph-name="T" unicode="T" horiz-adv-x="897" 
d="M181.87 525.095c-49.792 -14.5264 -99.0596 20.8291 -101.384 72.6055c-2.27344 50.749 29.1836 100.368 63.8848 134.64c70.8633 69.9941 171.349 92.9512 267.745 98.3428c40.0361 2.23633 80.0674 1.625 120.062 -0.489258
c21.2998 20.8887 80.7637 18.1855 95.8594 -7.31543c41.8105 -3.91211 83.5742 -8.37012 125.249 -11.9033c111.898 -9.48047 235.064 -15.1523 341.963 25.6592c27.3906 10.4561 53.1289 27.7695 58.6836 58.582c4.39746 24.3799 -9.40527 45.1748 -25.3369 62.0117
c-25.6357 27.1016 -62.0361 47.0049 -99.9717 36.2451c-16.8838 -4.78906 -44.7979 -6.17578 -57.9287 8.6543c-12.7617 14.4238 0.43457 27.8857 15.1895 33.0205c53.3398 18.5645 116.697 13.2803 165.388 -16.0293c41.2871 -24.8564 71.0352 -72.0391 56.0137 -121.038
c-13.7939 -44.998 -61.5693 -71.2969 -103.318 -84.9131c-50.5479 -16.4912 -103.733 -24.6416 -156.644 -28.3242c-105.157 -7.31445 -209.993 5.03223 -314.638 14.5869c9.60156 -98.665 10.7217 -198.814 13.9424 -297.797
c3.32324 -102.156 5.17188 -204.378 4.07031 -306.586c-0.293945 -27.4609 -0.639648 -55.1045 -1.26074 -82.7852c19.1758 8.16406 38.3184 16.4033 57.3164 24.96c34.7334 15.6377 69.1445 32.0312 102.23 50.959c34.6631 19.8291 70.3672 41.4131 92.4365 75.6943
c6.54883 10.1709 38.2998 6.17969 31.3682 -4.92969c-38.4258 -61.5928 -115.838 -96.3447 -179.068 -126.41c-34.5566 -16.4307 -69.7803 -31.3682 -104.976 -46.3799c-1.60156 -52.2939 -4.6123 -104.611 -11.1523 -156.112
c-9.71875 -76.5391 -30.6777 -153.144 -82.3467 -212.453c-44.709 -51.3184 -112.589 -88.7314 -182.094 -85.3984c-59.7861 2.87109 -118.004 33.7861 -124.642 98.3291c-15.0488 146.403 132.502 253.988 246.071 312.122
c15.4277 7.89844 31.0508 15.3574 46.7764 22.6064c2.02148 81.9443 2.38086 163.968 1.2002 245.922c-1.20898 83.6523 -4.02344 167.272 -7.63184 250.851c-3.5332 81.8047 -10.5488 163.922 -10.3945 245.819c-88.6426 4.85449 -182.098 1.47461 -258.516 -42.0957
c-39.9336 -22.7695 -73.7061 -57.2979 -91.873 -99.8545c-9.20508 -21.5605 -15.082 -44.708 -15.5439 -68.1875c-0.345703 -17.5049 2.68359 -48.3223 23.2686 -54.4414c11.3105 -3.36523 11.4043 -14.8389 0.000976562 -18.167zM520.25 -164.072
c17.3271 65.0322 18.9453 134.381 20.4717 201.757c-1.99805 -0.980469 -4.02344 -1.90918 -6.0166 -2.89844c-112.104 -55.6924 -251.262 -150.566 -248.479 -292.119c0.700195 -35.5693 17.71 -71.8242 55.123 -80.7861c27.6475 -6.61914 57.0928 3.71094 80.124 18.6064
c52.9854 34.2764 83.0469 96.415 98.7773 155.44z" />
    <glyph glyph-name="U" unicode="U" horiz-adv-x="1204" 
d="M1221.36 277.012c3.64551 12.8457 40 10.0859 35.5703 -5.58887c-35.0977 -124.595 -43.0986 -255.519 -84.0449 -378.615c-14.9648 -44.9893 -33.8789 -93.5117 -78.5693 -116.286c-41.1523 -20.9727 -90.3887 -16.1787 -123.731 16.6826
c-77.7852 76.665 -84.8574 210.072 -87.4766 312.215c-3.06641 119.684 9.63965 240.362 20.2031 359.435c2.10059 23.6562 3.9209 47.3223 5.57812 70.9932c-10.1709 -46.2637 -20.459 -92.5039 -31.3027 -138.618c-28.7119 -122.079 -58.25 -249.073 -111.767 -363.118
c-19.9971 -42.6133 -45.1289 -93.4365 -83.5645 -122.438c-42.0996 -31.7695 -105.074 -31.5078 -145.307 3.78125c-42.0244 36.8623 -39.9102 95.2061 -40.5078 146.454c-0.695312 59.9209 3.80469 119.81 9.10742 179.46c10.6475 119.684 28.502 238.658 37.7305 358.473
c4.55566 59.1182 8.70996 118.404 8.90625 177.729c0.15918 48.9941 2.15723 107.16 -48.0879 132.73c-101.092 51.4541 -202.128 -54.5254 -261.452 -123.881c-66.3721 -77.5889 -116.874 -168.767 -144.377 -267.301c-15.0908 -54.0635 -22.835 -113.266 3.76758 -165.103
c20.2676 -39.4902 58.334 -63.0771 101.797 -47.2295c46.6182 16.9961 77.3369 59.6553 101.465 100.77c13.8125 23.5303 25.7061 48.041 38.5518 72.085c14.125 26.4385 31.1582 49.7168 43.3037 77.3828c6.46973 14.7412 55.0576 14.9326 51.2861 -3.95801
c-6.26465 -31.4053 -7.97266 -63.3105 -18.125 -93.7686c-9.79785 -29.3984 -23.167 -58.7598 -39.332 -85.2363c-32.2549 -52.8125 -77.0195 -96.9336 -137.524 -114.947c-58.8809 -17.5371 -131.462 -11.4131 -176.428 34.4717
c-40.8252 41.665 -50.791 101.74 -44.0508 157.601c12.8223 106.315 66.9414 212.416 130.022 297.45c59.585 80.3203 145.287 167.796 245.889 191.863c99.7432 23.8623 197.815 -31.5781 222.158 -133.039c28.5439 -118.975 19.7217 -248.116 10.6426 -368.902
c-9.55078 -127.078 -22.9941 -253.633 -25.6689 -381.141c-0.616211 -29.3701 -3.14648 -61.7744 3.07617 -90.7061c2.01172 -9.37305 5.31641 -18.7139 11.0439 -26.4248c0.181641 -0.238281 1.65625 -1.88184 3.10352 -3.46387
c0.382812 0.107422 0.69043 0.201172 1.12012 0.313477c2.20312 1.21387 4.41113 2.42773 6.61914 3.6416c48.0654 27.4053 78.3457 89.6602 100.519 137.949c50.25 109.442 78.2061 231.777 108.08 348.025c26.9521 104.878 51.2998 210.399 77.6035 315.436
c1.4375 24.8662 4.5 49.4658 11.418 73.1875c6.05859 20.7578 53.209 16.3232 61.6113 0c28.0166 -54.4229 27.7598 -121.911 28.1426 -181.828c0.382812 -59.2021 -3.03906 -118.508 -6.58691 -177.58c-6.39941 -106.558 -17.584 -212.695 -17.9717 -319.566
c-0.191406 -53.0596 0.849609 -106.063 4.62109 -159.007c3.32324 -46.6689 5.97949 -99.5605 24.165 -143.168c5.66211 -13.5791 17.3271 -38.7061 34.4492 -41.3018c19.082 -2.89453 42.375 25.5557 51.6084 40.8945c24.9219 41.4082 37.3154 92.6611 48.6211 139.186
c24.4688 100.714 35.7559 204.153 64.0947 304.008zM625.423 -65.5078c0.807617 -0.854492 1.10645 -1.12988 0.135742 0.00488281c-0.0517578 -0.00488281 -0.0839844 -0.00488281 -0.135742 -0.00488281z" />
    <glyph glyph-name="U" unicode="&#xdc;" horiz-adv-x="1204" 
d="M1221.36 277.012c3.64551 12.8457 40 10.0859 35.5703 -5.58887c-35.0977 -124.595 -43.0986 -255.519 -84.0449 -378.615c-14.9648 -44.9893 -33.8789 -93.5117 -78.5693 -116.286c-41.1523 -20.9727 -90.3887 -16.1787 -123.731 16.6826
c-77.7852 76.665 -84.8574 210.072 -87.4766 312.215c-3.06641 119.684 9.63965 240.362 20.2031 359.435c2.10059 23.6562 3.9209 47.3223 5.57812 70.9932c-10.1709 -46.2637 -20.459 -92.5039 -31.3027 -138.618c-28.7119 -122.079 -58.25 -249.073 -111.767 -363.118
c-19.9971 -42.6133 -45.1289 -93.4365 -83.5645 -122.438c-42.0996 -31.7695 -105.074 -31.5078 -145.307 3.78125c-42.0244 36.8623 -39.9102 95.2061 -40.5078 146.454c-0.695312 59.9209 3.80469 119.81 9.10742 179.46c10.6475 119.684 28.502 238.658 37.7305 358.473
c4.55566 59.1182 8.70996 118.404 8.90625 177.729c0.15918 48.9941 2.15723 107.16 -48.0879 132.73c-101.092 51.4541 -202.128 -54.5254 -261.452 -123.881c-66.3721 -77.5889 -116.874 -168.767 -144.377 -267.301c-15.0908 -54.0635 -22.835 -113.266 3.76758 -165.103
c20.2676 -39.4902 58.334 -63.0771 101.797 -47.2295c46.6182 16.9961 77.3369 59.6553 101.465 100.77c13.8125 23.5303 25.7061 48.041 38.5518 72.085c14.125 26.4385 31.1582 49.7168 43.3037 77.3828c6.46973 14.7412 55.0576 14.9326 51.2861 -3.95801
c-6.26465 -31.4053 -7.97266 -63.3105 -18.125 -93.7686c-9.79785 -29.3984 -23.167 -58.7598 -39.332 -85.2363c-32.2549 -52.8125 -77.0195 -96.9336 -137.524 -114.947c-58.8809 -17.5371 -131.462 -11.4131 -176.428 34.4717
c-40.8252 41.665 -50.791 101.74 -44.0508 157.601c12.8223 106.315 66.9414 212.416 130.022 297.45c59.585 80.3203 145.287 167.796 245.889 191.863c99.7432 23.8623 197.815 -31.5781 222.158 -133.039c28.5439 -118.975 19.7217 -248.116 10.6426 -368.902
c-9.55078 -127.078 -22.9941 -253.633 -25.6689 -381.141c-0.616211 -29.3701 -3.14648 -61.7744 3.07617 -90.7061c2.01172 -9.37305 5.31641 -18.7139 11.0439 -26.4248c0.181641 -0.238281 1.65625 -1.88184 3.10352 -3.46387
c0.382812 0.107422 0.69043 0.201172 1.12012 0.313477c2.20312 1.21387 4.41113 2.42773 6.61914 3.6416c48.0654 27.4053 78.3457 89.6602 100.519 137.949c50.25 109.442 78.2061 231.777 108.08 348.025c26.9521 104.878 51.2998 210.399 77.6035 315.436
c1.4375 24.8662 4.5 49.4658 11.418 73.1875c6.05859 20.7578 53.209 16.3232 61.6113 0c28.0166 -54.4229 27.7598 -121.911 28.1426 -181.828c0.382812 -59.2021 -3.03906 -118.508 -6.58691 -177.58c-6.39941 -106.558 -17.584 -212.695 -17.9717 -319.566
c-0.191406 -53.0596 0.849609 -106.063 4.62109 -159.007c3.32324 -46.6689 5.97949 -99.5605 24.165 -143.168c5.66211 -13.5791 17.3271 -38.7061 34.4492 -41.3018c19.082 -2.89453 42.375 25.5557 51.6084 40.8945c24.9219 41.4082 37.3154 92.6611 48.6211 139.186
c24.4688 100.714 35.7559 204.153 64.0947 304.008zM625.423 -65.5078c0.807617 -0.854492 1.10645 -1.12988 0.135742 0.00488281c-0.0517578 -0.00488281 -0.0839844 -0.00488281 -0.135742 -0.00488281z" />
    <glyph glyph-name="U" unicode="&#xdb;" horiz-adv-x="1204" 
d="M1221.36 277.012c3.64551 12.8457 40 10.0859 35.5703 -5.58887c-35.0977 -124.595 -43.0986 -255.519 -84.0449 -378.615c-14.9648 -44.9893 -33.8789 -93.5117 -78.5693 -116.286c-41.1523 -20.9727 -90.3887 -16.1787 -123.731 16.6826
c-77.7852 76.665 -84.8574 210.072 -87.4766 312.215c-3.06641 119.684 9.63965 240.362 20.2031 359.435c2.10059 23.6562 3.9209 47.3223 5.57812 70.9932c-10.1709 -46.2637 -20.459 -92.5039 -31.3027 -138.618c-28.7119 -122.079 -58.25 -249.073 -111.767 -363.118
c-19.9971 -42.6133 -45.1289 -93.4365 -83.5645 -122.438c-42.0996 -31.7695 -105.074 -31.5078 -145.307 3.78125c-42.0244 36.8623 -39.9102 95.2061 -40.5078 146.454c-0.695312 59.9209 3.80469 119.81 9.10742 179.46c10.6475 119.684 28.502 238.658 37.7305 358.473
c4.55566 59.1182 8.70996 118.404 8.90625 177.729c0.15918 48.9941 2.15723 107.16 -48.0879 132.73c-101.092 51.4541 -202.128 -54.5254 -261.452 -123.881c-66.3721 -77.5889 -116.874 -168.767 -144.377 -267.301c-15.0908 -54.0635 -22.835 -113.266 3.76758 -165.103
c20.2676 -39.4902 58.334 -63.0771 101.797 -47.2295c46.6182 16.9961 77.3369 59.6553 101.465 100.77c13.8125 23.5303 25.7061 48.041 38.5518 72.085c14.125 26.4385 31.1582 49.7168 43.3037 77.3828c6.46973 14.7412 55.0576 14.9326 51.2861 -3.95801
c-6.26465 -31.4053 -7.97266 -63.3105 -18.125 -93.7686c-9.79785 -29.3984 -23.167 -58.7598 -39.332 -85.2363c-32.2549 -52.8125 -77.0195 -96.9336 -137.524 -114.947c-58.8809 -17.5371 -131.462 -11.4131 -176.428 34.4717
c-40.8252 41.665 -50.791 101.74 -44.0508 157.601c12.8223 106.315 66.9414 212.416 130.022 297.45c59.585 80.3203 145.287 167.796 245.889 191.863c99.7432 23.8623 197.815 -31.5781 222.158 -133.039c28.5439 -118.975 19.7217 -248.116 10.6426 -368.902
c-9.55078 -127.078 -22.9941 -253.633 -25.6689 -381.141c-0.616211 -29.3701 -3.14648 -61.7744 3.07617 -90.7061c2.01172 -9.37305 5.31641 -18.7139 11.0439 -26.4248c0.181641 -0.238281 1.65625 -1.88184 3.10352 -3.46387
c0.382812 0.107422 0.69043 0.201172 1.12012 0.313477c2.20312 1.21387 4.41113 2.42773 6.61914 3.6416c48.0654 27.4053 78.3457 89.6602 100.519 137.949c50.25 109.442 78.2061 231.777 108.08 348.025c26.9521 104.878 51.2998 210.399 77.6035 315.436
c1.4375 24.8662 4.5 49.4658 11.418 73.1875c6.05859 20.7578 53.209 16.3232 61.6113 0c28.0166 -54.4229 27.7598 -121.911 28.1426 -181.828c0.382812 -59.2021 -3.03906 -118.508 -6.58691 -177.58c-6.39941 -106.558 -17.584 -212.695 -17.9717 -319.566
c-0.191406 -53.0596 0.849609 -106.063 4.62109 -159.007c3.32324 -46.6689 5.97949 -99.5605 24.165 -143.168c5.66211 -13.5791 17.3271 -38.7061 34.4492 -41.3018c19.082 -2.89453 42.375 25.5557 51.6084 40.8945c24.9219 41.4082 37.3154 92.6611 48.6211 139.186
c24.4688 100.714 35.7559 204.153 64.0947 304.008zM625.423 -65.5078c0.807617 -0.854492 1.10645 -1.12988 0.135742 0.00488281c-0.0517578 -0.00488281 -0.0839844 -0.00488281 -0.135742 -0.00488281z" />
    <glyph glyph-name="U" unicode="&#xda;" horiz-adv-x="1204" 
d="M1221.36 277.012c3.64551 12.8457 40 10.0859 35.5703 -5.58887c-35.0977 -124.595 -43.0986 -255.519 -84.0449 -378.615c-14.9648 -44.9893 -33.8789 -93.5117 -78.5693 -116.286c-41.1523 -20.9727 -90.3887 -16.1787 -123.731 16.6826
c-77.7852 76.665 -84.8574 210.072 -87.4766 312.215c-3.06641 119.684 9.63965 240.362 20.2031 359.435c2.10059 23.6562 3.9209 47.3223 5.57812 70.9932c-10.1709 -46.2637 -20.459 -92.5039 -31.3027 -138.618c-28.7119 -122.079 -58.25 -249.073 -111.767 -363.118
c-19.9971 -42.6133 -45.1289 -93.4365 -83.5645 -122.438c-42.0996 -31.7695 -105.074 -31.5078 -145.307 3.78125c-42.0244 36.8623 -39.9102 95.2061 -40.5078 146.454c-0.695312 59.9209 3.80469 119.81 9.10742 179.46c10.6475 119.684 28.502 238.658 37.7305 358.473
c4.55566 59.1182 8.70996 118.404 8.90625 177.729c0.15918 48.9941 2.15723 107.16 -48.0879 132.73c-101.092 51.4541 -202.128 -54.5254 -261.452 -123.881c-66.3721 -77.5889 -116.874 -168.767 -144.377 -267.301c-15.0908 -54.0635 -22.835 -113.266 3.76758 -165.103
c20.2676 -39.4902 58.334 -63.0771 101.797 -47.2295c46.6182 16.9961 77.3369 59.6553 101.465 100.77c13.8125 23.5303 25.7061 48.041 38.5518 72.085c14.125 26.4385 31.1582 49.7168 43.3037 77.3828c6.46973 14.7412 55.0576 14.9326 51.2861 -3.95801
c-6.26465 -31.4053 -7.97266 -63.3105 -18.125 -93.7686c-9.79785 -29.3984 -23.167 -58.7598 -39.332 -85.2363c-32.2549 -52.8125 -77.0195 -96.9336 -137.524 -114.947c-58.8809 -17.5371 -131.462 -11.4131 -176.428 34.4717
c-40.8252 41.665 -50.791 101.74 -44.0508 157.601c12.8223 106.315 66.9414 212.416 130.022 297.45c59.585 80.3203 145.287 167.796 245.889 191.863c99.7432 23.8623 197.815 -31.5781 222.158 -133.039c28.5439 -118.975 19.7217 -248.116 10.6426 -368.902
c-9.55078 -127.078 -22.9941 -253.633 -25.6689 -381.141c-0.616211 -29.3701 -3.14648 -61.7744 3.07617 -90.7061c2.01172 -9.37305 5.31641 -18.7139 11.0439 -26.4248c0.181641 -0.238281 1.65625 -1.88184 3.10352 -3.46387
c0.382812 0.107422 0.69043 0.201172 1.12012 0.313477c2.20312 1.21387 4.41113 2.42773 6.61914 3.6416c48.0654 27.4053 78.3457 89.6602 100.519 137.949c50.25 109.442 78.2061 231.777 108.08 348.025c26.9521 104.878 51.2998 210.399 77.6035 315.436
c1.4375 24.8662 4.5 49.4658 11.418 73.1875c6.05859 20.7578 53.209 16.3232 61.6113 0c28.0166 -54.4229 27.7598 -121.911 28.1426 -181.828c0.382812 -59.2021 -3.03906 -118.508 -6.58691 -177.58c-6.39941 -106.558 -17.584 -212.695 -17.9717 -319.566
c-0.191406 -53.0596 0.849609 -106.063 4.62109 -159.007c3.32324 -46.6689 5.97949 -99.5605 24.165 -143.168c5.66211 -13.5791 17.3271 -38.7061 34.4492 -41.3018c19.082 -2.89453 42.375 25.5557 51.6084 40.8945c24.9219 41.4082 37.3154 92.6611 48.6211 139.186
c24.4688 100.714 35.7559 204.153 64.0947 304.008zM625.423 -65.5078c0.807617 -0.854492 1.10645 -1.12988 0.135742 0.00488281c-0.0517578 -0.00488281 -0.0839844 -0.00488281 -0.135742 -0.00488281z" />
    <glyph glyph-name="V" unicode="V" horiz-adv-x="1219" 
d="M395.354 571.055c6.7168 12.5703 48.5645 15.4941 47.3506 -3.67188c-1.92285 -30.3555 -15.7168 -52.6348 -41.1055 -69.168c-58.7266 -38.2529 -143.121 -26.5176 -193.034 20.8936c-51.6641 49.0732 -62.8623 126.653 -58.498 194.617
c8.16895 127.283 85.8379 281.804 220.632 311.276c65.8916 14.4053 119.824 -6.1709 173.188 -43.5234c56.0752 -39.252 77.1367 -108.826 93.7686 -172.313c42.0898 -160.645 45.9824 -328.627 54.7998 -493.533c4.42969 -82.9336 9.88672 -165.971 19.082 -248.526
c4.27148 -38.3467 6.91309 -79.083 18.5596 -116.043c5.02734 -15.9502 11.1885 -33.1182 21.2988 -46.6455c1.88574 -2.52539 7.09961 -10.1387 11.2305 -12.291c-2.78223 2.27344 16.2158 8.46289 19.4082 10.0547c64.3184 32.0684 98.9824 99.2109 124.992 163.114
c27.9648 68.7012 48.4521 140.908 66.7266 212.789c-49.4238 40.5967 -88.8857 95.2852 -115.987 154.082c-65.373 141.824 -77.0381 307.352 -37.6738 457.933c14.2412 54.4834 38.2529 122.891 99.9482 137.771c59.2822 14.2979 105.004 -28.04 126.985 -79.1582
c30.4346 -70.7646 34.332 -155.276 32.4229 -231.162c-2.12402 -84.3203 -13.2246 -168.706 -27.2705 -251.789c-10.3301 -61.0977 -23.0869 -121.799 -38.1689 -181.902c64.1416 -50.2402 143.388 -74.3213 225.701 -36.7686
c7.50098 3.42188 19.6143 5.41992 26.8682 0.000976562c5.61035 -4.19141 8.04199 -11.6416 -0.000976562 -15.3154c-30.1914 -13.7842 -61.5176 -21.5752 -94.7246 -23.0547c-61.6582 -2.74512 -117.359 14.9229 -165.447 45.6377
c-2.43164 -9.19141 -4.90527 -18.3682 -7.44434 -27.5264c-20.3564 -73.3838 -41.665 -148.984 -75.4141 -217.537c-14.6475 -29.7432 -32.6377 -57.8066 -53.5635 -83.5361c-20.4922 -25.1924 -43.5518 -52.2285 -73.2158 -66.7178
c-36.5869 -17.8643 -83.9189 -14.8584 -117.225 8.91992c-30.7939 21.9854 -47.4814 59.2578 -57.2324 94.668c-22.252 80.791 -28.3486 167.366 -33.7256 250.683c-5.45215 84.4746 -8.62598 169.117 -12.3838 253.681c-3.80469 85.6182 -8.75293 171.344 -18.3643 256.532
c-4.60742 40.8535 -9.63477 81.9824 -16.8047 122.472c-5.65723 31.9658 -11.3711 64.7949 -26.1914 94.0293c-7.01562 13.8359 -9.42871 30.9434 -20.7666 42.4961c-13.0791 13.3271 -34.0518 21.3887 -51.9619 24.9502
c-36.9648 7.35156 -75.8105 -1.48047 -108.075 -20.2266c-63.7539 -37.0439 -104.98 -109.881 -123.647 -179.371c-20.6455 -76.8613 -19.8848 -168.8 29.2207 -235.303c18.3867 -24.9033 52.1777 -53.4375 85.1611 -52.9658
c29.2441 0.419922 57.625 27.1904 70.583 51.4492zM894.567 437.957c20.2441 -44.0225 50.4912 -89.0098 87.6523 -125.938c36.4795 149.451 64.2676 308.187 58.4609 461.815c-2.59961 68.7109 -8.72852 159.468 -57.7695 213.036
c-60.248 65.7979 -107.244 -37.334 -121.435 -86.4541c-43.5508 -150.786 -32.5908 -319.642 33.0908 -462.46z" />
    <glyph glyph-name="W" unicode="W" horiz-adv-x="1512" 
d="M1535.84 278.674c10.8857 5.83008 41.751 -4.48145 24.293 -13.8594c-77.1787 -41.4316 -158.11 -42.0107 -233.823 -16.5381c-15.7822 -81.0479 -35.9844 -161.335 -65.3359 -238.331c-20.4033 -53.5127 -46.0254 -104.327 -81.3984 -149.577
c-32.8008 -41.9639 -73.0615 -78.5137 -128.675 -82.4111c-57.8018 -4.04688 -107.879 25.7812 -129.374 79.5361c-22.3545 55.8975 -33.375 119.259 -41.623 178.625c-6.86133 49.3955 -10.6377 98.8984 -11.5059 148.616
c-8.85059 -33.585 -18.793 -66.876 -30.3135 -99.7188c-18.0225 -51.3789 -39.7891 -101.675 -66.6387 -149.067c-22.9424 -40.4844 -56.252 -72.9727 -105.797 -73.0049c-48.2705 -0.0322266 -85.7539 30.0898 -108.711 70.5557
c-23.9883 42.2812 -24.7539 94.8506 -23.4893 142.052c2.91309 108.28 20.5205 216.295 36.373 323.259c15.6377 105.498 31.1494 211.57 36.8438 318.161c4.81738 90.1318 13.332 192.797 -19.5576 278.998c-16.1084 42.2207 -41.3799 71.8291 -85.9863 84.4648
c-45.1289 12.7852 -93.3438 5.18555 -134.439 -16.5479c-87.8535 -46.4639 -135.274 -140.083 -154.674 -234.038c-17.5186 -84.8613 -26.9521 -208.504 64.3838 -254.365c80.8193 -40.582 144.998 22.4111 199.062 75.9658
c7.90234 7.82812 47.8779 11.7305 45.5996 -7.03906c-1.45605 -12.001 -2.39453 -23.7783 -8.14551 -34.29c-5.11133 -9.34961 -12.2295 -18.2373 -19.166 -26.2891c-16.2256 -18.8398 -37.2773 -33.7959 -59.6133 -44.5508
c-47.5332 -22.8955 -100.35 -28.4131 -151.421 -14.6475c-45.3389 12.2207 -85.1182 40.8672 -107.113 82.8545c-25.1973 48.1025 -21.0566 105.106 -13.0088 156.999c14.792 95.3926 43.1777 191.831 112.859 262.12c60.6445 61.168 146.948 92.1768 232.207 73.3184
c89.6514 -19.834 156.038 -87.8213 178.458 -175.824c26.2148 -102.88 23.4609 -212.603 15.4277 -317.657c-8.59375 -112.416 -27.4521 -224.108 -42.0723 -335.843c-7.32422 -55.9961 -13.2061 -112.076 -17.2812 -168.398
c-3.69727 -51.1455 -8.67773 -104.392 5.29785 -154.478c4.29883 -15.3945 12.4912 -43.1494 30.8779 -45.4277c22.9424 -2.84766 48.4385 33.3516 57.9932 49.3438c27.0078 45.1807 48.1719 93.6934 65.9102 143.173c34.1738 95.3135 55.3613 194.585 75.4004 293.688
c0.0976562 10.2178 -0.0380859 20.4453 -0.579102 30.6777c-1.46582 27.7783 61.6621 25.7012 70.9883 5.47559c25.9346 -56.2529 23.209 -117.337 24.3994 -177.963c1.24121 -62.9326 6.00195 -125.884 14.1846 -188.303
c7.6416 -58.2461 17.3555 -116.828 30.7051 -174.057c3.91211 -16.7852 10.4473 -45.9082 25.0527 -57.0645c15.9316 -12.1602 39.6113 7.49121 51.6309 17.9287c73.8223 64.1035 110.433 165.714 137.73 256.704c16.6826 55.627 29.7529 112.197 40.7549 169.188
c-121.658 62.2461 -222.647 187.452 -260.919 306.268c-31.2188 96.9141 -28.2598 203.169 11.7627 297.189c36.4463 85.623 118.041 187.387 222.783 167.455c115.506 -21.9766 125.93 -188.708 130.938 -280.87c7.09961 -130.714 -9.91895 -261.545 -29.7578 -390.476
c-5.17676 -33.627 -10.7363 -67.334 -16.9629 -100.952c66.4189 -25.2812 137.464 -27.4609 205.465 8.97168zM1063.95 534.575c39.0703 -87.4854 118.623 -184.392 213.143 -239.267c7.81445 42.7207 14.5967 85.6416 20.9492 128.554
c16.5059 111.516 29.1748 224.366 23.6943 337.264c-2.60449 53.7412 -7.42676 109.746 -23.9229 161.232c-13.7607 42.9629 -41.7402 107.192 -97.0449 95.9424c-46.3936 -9.43848 -85.3701 -55.1699 -110.675 -92.4893
c-25.3838 -37.4365 -44.041 -79.9512 -54.2539 -124.021c-20.7861 -89.6787 -9.28418 -183.493 28.1104 -267.216z" />
    <glyph glyph-name="X" unicode="X" horiz-adv-x="1085" 
d="M986.079 -61.5342c-20.6367 -53.5596 -41.8457 -107.22 -67.4492 -158.637c-20.749 -41.6797 -44.9844 -90.5332 -87.5088 -113.845c-39.8545 -21.8408 -89.7871 -18.6152 -130.15 0.0146484c-48.3916 22.3311 -78.7891 64.1738 -94.2393 114.307
c-16.5752 53.7969 -21.915 111.165 -26.3965 167.025c-4.60254 57.3633 -5.75098 114.703 -4.81738 172.226c1.21387 74.3867 5.625 148.793 10.3672 223.203c-28.2217 -63.0352 -55.8086 -126.425 -89.8936 -186.533c-30.5322 -53.8438 -69.3828 -106.446 -123.47 -138.565
c-40.2461 -23.9043 -118.508 -34.4678 -137.146 23.0635c-4.78027 14.7549 28.1514 16.4072 33.4775 5.26074c44.0225 -92.1807 161.736 66.998 184.8 106.119c54.1982 91.9199 91.3496 192.517 138.374 288.049c7.49219 124.548 12.3799 249.105 1.16797 373.64
c-7.79102 86.4863 -5.12598 217.103 -113.715 237.996c-109.121 20.9961 -196.256 -77.6357 -242.342 -163.721c-49.6611 -92.7646 -67.7354 -199.631 -25.6826 -298.659c17.7939 -41.9082 47.4072 -86.7803 97.6475 -88.9932
c45.4365 -2.00293 90.9951 35.3916 120.851 66.0361c9.13477 9.38281 45.9922 9.47656 41.0586 -9.8623c-14.877 -58.2969 -64.3008 -91.6396 -122.28 -100.947c-55.958 -8.98145 -121.201 6.38477 -159.216 50.7061c-75.0547 87.5039 -51.459 232.361 -12.7998 330.372
c35.8301 90.8418 102.469 185.842 196.676 222.125c91.4766 35.2334 185.096 3.66016 241.601 -74.7041c64.6875 -89.7119 72.0576 -212.99 77.6455 -319.796c0.999023 -19.1104 1.68066 -38.2207 2.15234 -57.3262c28.2168 35.9473 60.6494 69.6543 98.1748 93.0918
c22.7793 14.2227 52.5088 21.8643 78.1816 10.8203c21.958 -9.44336 36.7227 -30.2012 28.6143 -53.9277c-4.50879 -13.1963 -41.9922 -9.90527 -36.6426 5.75586c3.5293 10.3203 -1.06348 24.0996 -11.4258 29.2109c-13.6719 6.74512 -30.7607 -5.83984 -41.2031 -13.6768
c-14.377 -10.7871 -27.7227 -23.2881 -40.4795 -35.9189c-27.8623 -27.5781 -52.4805 -58.3066 -74.457 -90.7344c0.201172 -83.4619 -3.36523 -166.881 -6.86621 -250.352c-5.19043 -123.698 -10.5635 -247.84 -3.05273 -371.571
c3.40723 -56.1123 4.7002 -118.946 24.0488 -172.281c8.42578 -23.2412 21.5283 -47.8223 42.1318 -62.4658c19.502 -13.8584 37.9209 -9.26953 56.751 3.69336c43.042 29.6318 66.6338 83.4336 88.5635 129.001c23.3672 48.5596 42.3232 99.1641 61.8301 149.353
c38.2676 98.4688 78.1357 196.634 143.5 280.697c8.46777 10.8857 45.1992 4.44434 33.4404 -11.1416c-69.4766 -92.0928 -108.752 -201.517 -149.82 -308.107z" />
    <glyph glyph-name="Y" unicode="Y" horiz-adv-x="1182" 
d="M894.662 -248.902c-48.3916 -59.6787 -118.132 -100.955 -195.613 -105.39c-61.9844 -3.53809 -133.155 18.8906 -169.359 72.0996c-39.1309 57.5176 -14.5449 139.168 24.6934 189.931c48.5967 62.876 125.448 97.834 196.082 129.57
c55.4492 24.917 112.238 47.6592 168.594 71.3389c10.0361 79.2744 11.4131 159.968 8.55664 239.625c-3.05273 85.0576 -9.97559 170.325 -17.9434 255.061c-2.7959 29.7207 -6.66992 59.334 -10.6514 88.9287c-21.5654 -145.53 -52.6533 -288.885 -117.56 -423.058
c-32.4746 -67.124 -80.7031 -143.406 -159.875 -159.016c-42.501 -8.37891 -85.1836 10.9229 -101.045 52.0977c-16.3613 42.4639 -11.9688 90.1416 -6.55371 134.281c11.623 94.7666 31.1816 188.315 43.8594 282.914c11.7861 87.9473 22.5918 180.324 7.23926 268.528
c-13.9658 80.2588 -56.5273 155.822 -146.986 158.581c-78.8027 2.4043 -154.333 -51.9434 -187.661 -121.569c-35.0322 -73.1924 -30.4951 -172.571 18.667 -239c24.334 -32.8809 59.0166 -53.583 99.9814 -42.1191c35.7422 9.99902 67.5352 31.7275 89.7773 61.4287
c6.34375 8.46777 31.9375 7.16992 33.3662 -5.15332c5.05078 -43.5889 -34.0381 -69.6357 -70.1299 -84.8203c-45.2227 -19.0215 -101.854 -25.9297 -145.003 1.96094c-72.2959 46.7256 -94.916 157.293 -82.752 236.74c24.6748 161.172 194.842 254.478 343.835 189.318
c80.6465 -35.2705 118.204 -112.216 132.497 -194.996c16.9209 -98.0156 9.45703 -198.3 -2.91797 -296.344c-12.6406 -100.182 -38.4443 -202.734 -34.8223 -304.153c0.40625 -11.4033 -0.186523 -23.7822 1.81152 -35.0645
c0.448242 -2.53027 4.79395 -11.2686 7.10938 -16.4824c3.31445 1.77344 7.14258 3.77148 8.21191 4.44824c8.47266 5.37695 16.2539 11.6875 23.5498 18.5723c31.2275 29.4775 51.7148 68.7998 70.1758 107.039c83.0459 172.039 118.881 366.67 137.996 555.494
c2.08203 20.5576 47.9014 21.1553 55.8457 6.06836c4.30859 -1.15723 7.85645 -2.94922 9.64844 -5.29297c62.8018 -82.2617 76.9082 -186.112 89.5391 -286.21c13.0703 -103.585 22.9102 -208.668 21.3604 -313.177c-0.40625 -27.3867 -1.57324 -55.2256 -3.68359 -83.2285
c57.9424 27.9277 114.036 59.2861 166.172 97.7637c6.9502 5.13477 16.9531 7.04883 25.2432 3.77637c4.9668 -1.96094 13.8594 -9.04199 6.61914 -14.3916c-62.6475 -46.3193 -130.519 -82.6357 -200.452 -115.021c-13.4531 -136.572 -51.1787 -274.718 -137.422 -381.08z
M737.904 -290.021c54.9824 35.4805 89.8936 99.2012 116.001 157.232c30.8359 68.543 50.0537 140.559 61.3223 214.04c-44.998 -18.8672 -90.127 -37.4873 -134.598 -57.3867c-66.3213 -29.6738 -138.458 -60.9668 -185.31 -118.797
c-42.5195 -52.4766 -54.1475 -134.463 -3.23047 -186.09c40.1855 -40.7412 100.229 -38.4209 145.814 -8.99902z" />
    <glyph glyph-name="Y" unicode="&#x178;" horiz-adv-x="1182" 
d="M894.662 -248.902c-48.3916 -59.6787 -118.132 -100.955 -195.613 -105.39c-61.9844 -3.53809 -133.155 18.8906 -169.359 72.0996c-39.1309 57.5176 -14.5449 139.168 24.6934 189.931c48.5967 62.876 125.448 97.834 196.082 129.57
c55.4492 24.917 112.238 47.6592 168.594 71.3389c10.0361 79.2744 11.4131 159.968 8.55664 239.625c-3.05273 85.0576 -9.97559 170.325 -17.9434 255.061c-2.7959 29.7207 -6.66992 59.334 -10.6514 88.9287c-21.5654 -145.53 -52.6533 -288.885 -117.56 -423.058
c-32.4746 -67.124 -80.7031 -143.406 -159.875 -159.016c-42.501 -8.37891 -85.1836 10.9229 -101.045 52.0977c-16.3613 42.4639 -11.9688 90.1416 -6.55371 134.281c11.623 94.7666 31.1816 188.315 43.8594 282.914c11.7861 87.9473 22.5918 180.324 7.23926 268.528
c-13.9658 80.2588 -56.5273 155.822 -146.986 158.581c-78.8027 2.4043 -154.333 -51.9434 -187.661 -121.569c-35.0322 -73.1924 -30.4951 -172.571 18.667 -239c24.334 -32.8809 59.0166 -53.583 99.9814 -42.1191c35.7422 9.99902 67.5352 31.7275 89.7773 61.4287
c6.34375 8.46777 31.9375 7.16992 33.3662 -5.15332c5.05078 -43.5889 -34.0381 -69.6357 -70.1299 -84.8203c-45.2227 -19.0215 -101.854 -25.9297 -145.003 1.96094c-72.2959 46.7256 -94.916 157.293 -82.752 236.74c24.6748 161.172 194.842 254.478 343.835 189.318
c80.6465 -35.2705 118.204 -112.216 132.497 -194.996c16.9209 -98.0156 9.45703 -198.3 -2.91797 -296.344c-12.6406 -100.182 -38.4443 -202.734 -34.8223 -304.153c0.40625 -11.4033 -0.186523 -23.7822 1.81152 -35.0645
c0.448242 -2.53027 4.79395 -11.2686 7.10938 -16.4824c3.31445 1.77344 7.14258 3.77148 8.21191 4.44824c8.47266 5.37695 16.2539 11.6875 23.5498 18.5723c31.2275 29.4775 51.7148 68.7998 70.1758 107.039c83.0459 172.039 118.881 366.67 137.996 555.494
c2.08203 20.5576 47.9014 21.1553 55.8457 6.06836c4.30859 -1.15723 7.85645 -2.94922 9.64844 -5.29297c62.8018 -82.2617 76.9082 -186.112 89.5391 -286.21c13.0703 -103.585 22.9102 -208.668 21.3604 -313.177c-0.40625 -27.3867 -1.57324 -55.2256 -3.68359 -83.2285
c57.9424 27.9277 114.036 59.2861 166.172 97.7637c6.9502 5.13477 16.9531 7.04883 25.2432 3.77637c4.9668 -1.96094 13.8594 -9.04199 6.61914 -14.3916c-62.6475 -46.3193 -130.519 -82.6357 -200.452 -115.021c-13.4531 -136.572 -51.1787 -274.718 -137.422 -381.08z
M737.904 -290.021c54.9824 35.4805 89.8936 99.2012 116.001 157.232c30.8359 68.543 50.0537 140.559 61.3223 214.04c-44.998 -18.8672 -90.127 -37.4873 -134.598 -57.3867c-66.3213 -29.6738 -138.458 -60.9668 -185.31 -118.797
c-42.5195 -52.4766 -54.1475 -134.463 -3.23047 -186.09c40.1855 -40.7412 100.229 -38.4209 145.814 -8.99902z" />
    <glyph glyph-name="Y" unicode="&#xdd;" horiz-adv-x="1182" 
d="M894.662 -248.902c-48.3916 -59.6787 -118.132 -100.955 -195.613 -105.39c-61.9844 -3.53809 -133.155 18.8906 -169.359 72.0996c-39.1309 57.5176 -14.5449 139.168 24.6934 189.931c48.5967 62.876 125.448 97.834 196.082 129.57
c55.4492 24.917 112.238 47.6592 168.594 71.3389c10.0361 79.2744 11.4131 159.968 8.55664 239.625c-3.05273 85.0576 -9.97559 170.325 -17.9434 255.061c-2.7959 29.7207 -6.66992 59.334 -10.6514 88.9287c-21.5654 -145.53 -52.6533 -288.885 -117.56 -423.058
c-32.4746 -67.124 -80.7031 -143.406 -159.875 -159.016c-42.501 -8.37891 -85.1836 10.9229 -101.045 52.0977c-16.3613 42.4639 -11.9688 90.1416 -6.55371 134.281c11.623 94.7666 31.1816 188.315 43.8594 282.914c11.7861 87.9473 22.5918 180.324 7.23926 268.528
c-13.9658 80.2588 -56.5273 155.822 -146.986 158.581c-78.8027 2.4043 -154.333 -51.9434 -187.661 -121.569c-35.0322 -73.1924 -30.4951 -172.571 18.667 -239c24.334 -32.8809 59.0166 -53.583 99.9814 -42.1191c35.7422 9.99902 67.5352 31.7275 89.7773 61.4287
c6.34375 8.46777 31.9375 7.16992 33.3662 -5.15332c5.05078 -43.5889 -34.0381 -69.6357 -70.1299 -84.8203c-45.2227 -19.0215 -101.854 -25.9297 -145.003 1.96094c-72.2959 46.7256 -94.916 157.293 -82.752 236.74c24.6748 161.172 194.842 254.478 343.835 189.318
c80.6465 -35.2705 118.204 -112.216 132.497 -194.996c16.9209 -98.0156 9.45703 -198.3 -2.91797 -296.344c-12.6406 -100.182 -38.4443 -202.734 -34.8223 -304.153c0.40625 -11.4033 -0.186523 -23.7822 1.81152 -35.0645
c0.448242 -2.53027 4.79395 -11.2686 7.10938 -16.4824c3.31445 1.77344 7.14258 3.77148 8.21191 4.44824c8.47266 5.37695 16.2539 11.6875 23.5498 18.5723c31.2275 29.4775 51.7148 68.7998 70.1758 107.039c83.0459 172.039 118.881 366.67 137.996 555.494
c2.08203 20.5576 47.9014 21.1553 55.8457 6.06836c4.30859 -1.15723 7.85645 -2.94922 9.64844 -5.29297c62.8018 -82.2617 76.9082 -186.112 89.5391 -286.21c13.0703 -103.585 22.9102 -208.668 21.3604 -313.177c-0.40625 -27.3867 -1.57324 -55.2256 -3.68359 -83.2285
c57.9424 27.9277 114.036 59.2861 166.172 97.7637c6.9502 5.13477 16.9531 7.04883 25.2432 3.77637c4.9668 -1.96094 13.8594 -9.04199 6.61914 -14.3916c-62.6475 -46.3193 -130.519 -82.6357 -200.452 -115.021c-13.4531 -136.572 -51.1787 -274.718 -137.422 -381.08z
M737.904 -290.021c54.9824 35.4805 89.8936 99.2012 116.001 157.232c30.8359 68.543 50.0537 140.559 61.3223 214.04c-44.998 -18.8672 -90.127 -37.4873 -134.598 -57.3867c-66.3213 -29.6738 -138.458 -60.9668 -185.31 -118.797
c-42.5195 -52.4766 -54.1475 -134.463 -3.23047 -186.09c40.1855 -40.7412 100.229 -38.4209 145.814 -8.99902z" />
    <glyph glyph-name="Z" unicode="Z" horiz-adv-x="1109" 
d="M1126.88 256.03c8.64941 10.6709 45.2129 3.875 33.1182 -11.0293c-22.751 -28.0586 -45.8145 -55.8604 -69.751 -82.9102c-90.2529 -101.993 -194.921 -194.38 -322.857 -245.386c-46.8281 -18.667 -95.4023 -29.9072 -144.984 -35.3594
c-85.749 -88.1338 -190.142 -166.488 -310.937 -181.351c-41.8525 -5.14844 -86.874 -1.49316 -125.944 15.0586c-28.917 12.2529 -60.7754 33.7207 -67.4414 66.7314c-6.5166 32.2881 18.4102 61.6953 42.585 79.9375c27.7832 20.959 61.6436 32.6475 95.6396 38.6504
c82.4951 14.5635 168.352 1.79688 251.365 -0.658203c1.21387 -0.0371094 2.42285 -0.0507812 3.63672 -0.0791016c44.3213 42.6641 85.3701 88.7168 122.699 137.612c79.4561 104.089 142.216 221.527 186.206 344.819c11.1006 31.1064 21.9209 63.7305 31.252 97.1943
c-26.8398 6.64258 -53.9463 9.07031 -74.583 -7.77148c-9.6582 -7.88379 -44.9424 -1.17188 -31.5498 10.5117c27.2881 23.8057 67.4414 31.4473 102.838 29.7578c3.87012 -0.186523 7.73047 -0.480469 11.5859 -0.821289c23.251 95.3828 31.5645 195.789 -2.62793 286.378
c-23.4609 62.1621 -67.6094 114.237 -130.448 138.524c-63.623 24.5947 -134.668 27.75 -201.651 17.9805c-134.379 -19.6006 -260.318 -96.168 -336.997 -208.71c-34.1924 -50.1846 -66.3311 -111.917 -73.1279 -173.15
c-5.97949 -53.8721 1.87207 -129.323 62.624 -148.555c51.6729 -16.3564 113.298 5.52148 157.228 32.8008c50.5439 31.3867 91.7705 78.1592 117.052 131.929c9.9375 21.1318 71.7119 17.4863 62.666 -9.84375c-10.1201 -30.5742 -24.7725 -59.2812 -44.7881 -84.5947
c-41.7588 -52.8311 -102.511 -90.6826 -167.282 -108.188c-67.749 -18.3125 -157.144 -21.9863 -211.048 31.3203c-48.0654 47.5371 -39.6074 116.397 -22.6631 175.32c19.376 67.376 56.4385 130.905 100.06 185.323c93.3809 116.501 232.618 189.067 381.327 201.208
c143.331 11.6973 294.271 -36.125 367.029 -168.314c53.3213 -96.877 53.6104 -208.878 33.0811 -316.561c9.61621 -1.94629 18.8584 -2.56738 24.6885 1.01758c20.2773 12.4678 80.2129 -4.08887 47.501 -27.0732c-23.9277 -16.8135 -52.3779 -16.0059 -80.1377 -11.2305
c-8.65918 -36.9512 -19.3535 -73.1133 -30.7852 -107.66c-46.8838 -141.665 -122.013 -273.271 -217.555 -387.75c-14.6855 -17.5977 -30.1406 -35.4336 -46.3145 -53.1016c37.7773 6.35742 74.915 16.5752 111.39 32.0537c151.967 64.4912 266.035 190.337 367.902 315.968
zM182.648 -210.681c26.5977 -61.3125 116.185 -35.0557 160.165 -14.293c54.4883 25.7295 102.017 63.0586 146.226 103.613c-53.1953 2.25488 -106.334 6.5166 -159.595 5.91406c-47.1084 -0.532227 -180.483 -17.584 -146.796 -95.2344z" />
    <glyph glyph-name="bracketleft" unicode="[" horiz-adv-x="304" 
d="M211.234 -115.828c8.62598 4.19141 50.2656 6.50684 41.2002 -13.668c-12.1084 -26.9287 -49.3301 -32.1289 -75.5449 -29.6592c-32.4697 3.05762 -62.582 17.1494 -82.9941 42.9902c-28.8145 36.4746 -34.7383 84.7451 -37.5713 129.827
c-10.3164 163.986 -6.76465 329.966 1.70312 493.92c4.20605 81.4961 11.6514 163.81 27.2842 243.994c5.15332 26.4248 10.6289 53.2695 19.624 78.7051c21.5703 61.0137 83.1582 57.835 131.844 30.9014c18.3496 -10.1475 -14.3018 -19.1006 -24.8047 -14.1387
c-15.791 7.45898 -30.3691 16.8037 -38.9902 -2.40918c-3.77148 -8.40234 -5.88184 -17.4629 -7.63184 -26.4668c-2.28711 -11.791 -3.72461 -23.7686 -4.97559 -35.709c-3.2207 -30.7803 -4.3457 -61.7324 -5.95117 -92.624
c-7.94922 -152.984 -9.19531 -306.996 -8.75684 -460.167c0.186523 -64.2158 0.96582 -128.502 4.17285 -192.647c1.84863 -36.9697 2.5957 -181.426 61.3926 -152.849z" />
    <glyph glyph-name="backslash" unicode="\" horiz-adv-x="597" 
d="M546.345 -171.165c6.6748 -25.2998 -40.1152 -22.9697 -52.0557 -12.5039c-65.5371 57.4053 -105.606 142.51 -143.196 219.786c-38.1035 78.3125 -74.9658 157.232 -109.69 237.104c-34.6729 79.7363 -67.9316 160.089 -99.7715 241.002
c-32.8477 83.4805 -65.9053 167.11 -90.5752 253.419c-11.8984 41.6094 80.418 47.1592 93.959 14.7646c34.2061 -81.8135 63.3428 -165.583 95.5879 -248.186c31.6064 -80.9551 64.6406 -161.354 99.085 -241.147c34.9814 -81.0391 70.6904 -161.784 108.001 -241.782
c16.874 -36.1904 33.3096 -72.5625 50.6182 -108.547c18.0322 -37.4785 37.3809 -73.5381 48.0381 -113.91z" />
    <glyph glyph-name="bracketright" unicode="]" horiz-adv-x="303" 
d="M222.52 729.415c30.5889 -172.511 30.7715 -351.616 29.8848 -526.265c-0.349609 -68.4453 -0.676758 -137.292 -6.12891 -205.564c-3.68262 -46.0947 -14.1387 -97.4131 -50.7256 -129.07c-32.75 -28.334 -121.188 -49.3584 -144.266 1.98828
c-9.05078 20.1328 32.4463 17.9297 41.2031 13.6729c61.252 -29.7715 60.6309 132.866 62.2363 171.376c6.10547 146.669 4.13574 294.02 0.303711 440.726c-1.88086 72.0342 -3.38867 144.045 -6.95508 216.023c-1.3252 26.7139 -2.61328 53.4238 -5.8291 79.9932
c-1.24609 10.3115 -2.61816 20.6885 -4.85449 30.8408c-1.79688 8.1543 -3.92969 19.9551 -9.02246 26.8398c-9.56934 12.9297 -24.3154 2.87988 -36.6201 -2.93164c-10.5869 -5.00391 -43.1035 4.01953 -24.8057 14.1396c25.916 14.3398 56.332 25.5615 86.1133 16.8418
c27.3867 -8.01953 39.9521 -29.375 48.1484 -55.0059c9.7373 -30.4297 15.749 -62.1943 21.3174 -93.6045z" />
    <glyph glyph-name="asciicircum" unicode="^" horiz-adv-x="280" 
d="M194.645 679.936c17.8545 -30.7148 34.6914 -71.7002 35.5039 -107.745c0.592773 -26.4346 -64.7109 -28.2686 -71.3486 -5.50293c-7.62695 26.1592 -10.0635 53.9287 -16.5703 80.4893c-2.87988 11.7627 -5.59668 23.5908 -8.68262 35.3027
c-0.616211 2.34375 -3.50586 9.85449 -5.99805 17.29c-1.90918 -3.82812 -3.69238 -7.73047 -5.49902 -11.5908c-5.37695 -11.502 -10.6143 -23.0693 -15.5391 -34.7715c-11.3242 -26.9102 -17.4902 -53.3486 -22.3398 -82.042
c-2.18945 -12.9629 -33.2354 -13.6582 -33.9873 0c-2.08203 37.8848 13.9189 77.2861 29.0479 111.198c10.7783 24.1562 21.7197 55.0996 52.9805 56.1406c31.1533 1.03125 49.0215 -35.7002 62.4326 -58.7686z" />
    <glyph glyph-name="underscore" unicode="_" horiz-adv-x="512" 
d="M430.29 -52.8213c13.0371 -1.89062 34.7676 -10.5107 31.2432 -27.2734c-3.40332 -16.1885 -28.7871 -22.6113 -42.8369 -21.5566c-59.7627 4.49023 -119.591 3.16895 -179.26 -2.05859c-31.2139 -2.73535 -62.4043 -5.63379 -93.6699 -7.77637
c-25.7949 -1.76953 -57.4199 -6.5918 -82.2207 2.94434c-24.0254 9.2373 -12.584 26.7793 7.15625 31.2002c56.4434 12.6406 114.895 19.1758 172.57 24.7168c62.4141 5.99316 124.739 8.81738 187.018 -0.196289z" />
    <glyph glyph-name="grave" unicode="`" horiz-adv-x="200" 
d="M149.051 657.222c4.75684 -16.3418 -23.4727 -18.666 -33.541 -14.6934c-28.7871 11.3711 -39.3789 37.3242 -47.8516 65.6582c-9.71387 32.4883 -14.998 66.0498 -17.6074 99.7891c-2.33398 30.1914 77.5615 31.5596 79.209 0
c1.41895 -27.2324 4.08398 -54.5957 8.40625 -81.5244c3.65039 -22.751 4.93848 -47.0801 11.3848 -69.2295z" />
    <glyph glyph-name="a" unicode="a" horiz-adv-x="496" 
d="M493.579 252.497c4.27539 11.2119 36.2871 8.25293 31.3623 -4.9248c-27.9414 -74.8682 -56.1162 -150.062 -94.6777 -220.253c-28.6377 -52.1309 -70.7188 -130.523 -143.136 -106.11c-73.9531 24.9268 -80.3896 127.265 -82.6445 192.068
c-0.71875 20.6416 -0.579102 41.2783 0.228516 61.8916c-13.4951 -36.8623 -27.998 -73.2578 -44.6484 -108.491c-15.1377 -32.0312 -33.1787 -63.2822 -66.6709 -78.1914c-32.3018 -14.377 -67.4512 -2.62305 -89.666 23.9697
c-50.6328 60.6123 -35.6348 164.725 -11.4414 233.108c25.5889 72.3242 84.5996 133.268 166.507 127.521c25.6035 -1.79688 47.4863 -10.5957 65.5273 -24.1748c1.08301 6.47461 2.18457 12.9492 3.30957 19.4092c6.88965 39.5371 105.807 37.9873 101.088 0
c-8.6543 -69.6816 -18.9512 -139.2 -22.4238 -209.391c-3.02441 -61.1025 -6.5957 -130.635 16.8838 -188.386c3.4873 -8.5791 5.54102 -22.6152 14.709 -21.1309c13.0654 2.11914 26.4902 29.3701 33.2871 39.8359c17.5703 27.0596 33.2266 55.3232 47.5195 84.2402
c28.6885 58.0312 51.8457 118.573 74.8867 179.008zM166.081 172.462c16.7715 45.4043 33.0566 90.9873 49.376 136.564c-13.9473 17.6865 -32.6611 30.1123 -56.6582 30c-35.6621 -0.172852 -58.4736 -52.999 -70.4932 -79.8906
c-20.3662 -45.5537 -30.4023 -92.6709 -29.9541 -142.607c0.335938 -37.25 3.65039 -76.7959 28.1797 -104.803c10.4883 7.18359 23.5723 31.8438 27.0449 37.875c7.04883 12.2344 13.0615 25.0664 18.7607 37.9727c12.3047 27.8574 23.1943 56.3311 33.7441 84.8887z" />
    <glyph glyph-name="a" unicode="&#xe5;" horiz-adv-x="496" 
d="M493.579 252.497c4.27539 11.2119 36.2871 8.25293 31.3623 -4.9248c-27.9414 -74.8682 -56.1162 -150.062 -94.6777 -220.253c-28.6377 -52.1309 -70.7188 -130.523 -143.136 -106.11c-73.9531 24.9268 -80.3896 127.265 -82.6445 192.068
c-0.71875 20.6416 -0.579102 41.2783 0.228516 61.8916c-13.4951 -36.8623 -27.998 -73.2578 -44.6484 -108.491c-15.1377 -32.0312 -33.1787 -63.2822 -66.6709 -78.1914c-32.3018 -14.377 -67.4512 -2.62305 -89.666 23.9697
c-50.6328 60.6123 -35.6348 164.725 -11.4414 233.108c25.5889 72.3242 84.5996 133.268 166.507 127.521c25.6035 -1.79688 47.4863 -10.5957 65.5273 -24.1748c1.08301 6.47461 2.18457 12.9492 3.30957 19.4092c6.88965 39.5371 105.807 37.9873 101.088 0
c-8.6543 -69.6816 -18.9512 -139.2 -22.4238 -209.391c-3.02441 -61.1025 -6.5957 -130.635 16.8838 -188.386c3.4873 -8.5791 5.54102 -22.6152 14.709 -21.1309c13.0654 2.11914 26.4902 29.3701 33.2871 39.8359c17.5703 27.0596 33.2266 55.3232 47.5195 84.2402
c28.6885 58.0312 51.8457 118.573 74.8867 179.008zM166.081 172.462c16.7715 45.4043 33.0566 90.9873 49.376 136.564c-13.9473 17.6865 -32.6611 30.1123 -56.6582 30c-35.6621 -0.172852 -58.4736 -52.999 -70.4932 -79.8906
c-20.3662 -45.5537 -30.4023 -92.6709 -29.9541 -142.607c0.335938 -37.25 3.65039 -76.7959 28.1797 -104.803c10.4883 7.18359 23.5723 31.8438 27.0449 37.875c7.04883 12.2344 13.0615 25.0664 18.7607 37.9727c12.3047 27.8574 23.1943 56.3311 33.7441 84.8887z" />
    <glyph glyph-name="a" unicode="&#xe4;" horiz-adv-x="496" 
d="M493.579 252.497c4.27539 11.2119 36.2871 8.25293 31.3623 -4.9248c-27.9414 -74.8682 -56.1162 -150.062 -94.6777 -220.253c-28.6377 -52.1309 -70.7188 -130.523 -143.136 -106.11c-73.9531 24.9268 -80.3896 127.265 -82.6445 192.068
c-0.71875 20.6416 -0.579102 41.2783 0.228516 61.8916c-13.4951 -36.8623 -27.998 -73.2578 -44.6484 -108.491c-15.1377 -32.0312 -33.1787 -63.2822 -66.6709 -78.1914c-32.3018 -14.377 -67.4512 -2.62305 -89.666 23.9697
c-50.6328 60.6123 -35.6348 164.725 -11.4414 233.108c25.5889 72.3242 84.5996 133.268 166.507 127.521c25.6035 -1.79688 47.4863 -10.5957 65.5273 -24.1748c1.08301 6.47461 2.18457 12.9492 3.30957 19.4092c6.88965 39.5371 105.807 37.9873 101.088 0
c-8.6543 -69.6816 -18.9512 -139.2 -22.4238 -209.391c-3.02441 -61.1025 -6.5957 -130.635 16.8838 -188.386c3.4873 -8.5791 5.54102 -22.6152 14.709 -21.1309c13.0654 2.11914 26.4902 29.3701 33.2871 39.8359c17.5703 27.0596 33.2266 55.3232 47.5195 84.2402
c28.6885 58.0312 51.8457 118.573 74.8867 179.008zM166.081 172.462c16.7715 45.4043 33.0566 90.9873 49.376 136.564c-13.9473 17.6865 -32.6611 30.1123 -56.6582 30c-35.6621 -0.172852 -58.4736 -52.999 -70.4932 -79.8906
c-20.3662 -45.5537 -30.4023 -92.6709 -29.9541 -142.607c0.335938 -37.25 3.65039 -76.7959 28.1797 -104.803c10.4883 7.18359 23.5723 31.8438 27.0449 37.875c7.04883 12.2344 13.0615 25.0664 18.7607 37.9727c12.3047 27.8574 23.1943 56.3311 33.7441 84.8887z" />
    <glyph glyph-name="a" unicode="&#xe3;" horiz-adv-x="496" 
d="M493.579 252.497c4.27539 11.2119 36.2871 8.25293 31.3623 -4.9248c-27.9414 -74.8682 -56.1162 -150.062 -94.6777 -220.253c-28.6377 -52.1309 -70.7188 -130.523 -143.136 -106.11c-73.9531 24.9268 -80.3896 127.265 -82.6445 192.068
c-0.71875 20.6416 -0.579102 41.2783 0.228516 61.8916c-13.4951 -36.8623 -27.998 -73.2578 -44.6484 -108.491c-15.1377 -32.0312 -33.1787 -63.2822 -66.6709 -78.1914c-32.3018 -14.377 -67.4512 -2.62305 -89.666 23.9697
c-50.6328 60.6123 -35.6348 164.725 -11.4414 233.108c25.5889 72.3242 84.5996 133.268 166.507 127.521c25.6035 -1.79688 47.4863 -10.5957 65.5273 -24.1748c1.08301 6.47461 2.18457 12.9492 3.30957 19.4092c6.88965 39.5371 105.807 37.9873 101.088 0
c-8.6543 -69.6816 -18.9512 -139.2 -22.4238 -209.391c-3.02441 -61.1025 -6.5957 -130.635 16.8838 -188.386c3.4873 -8.5791 5.54102 -22.6152 14.709 -21.1309c13.0654 2.11914 26.4902 29.3701 33.2871 39.8359c17.5703 27.0596 33.2266 55.3232 47.5195 84.2402
c28.6885 58.0312 51.8457 118.573 74.8867 179.008zM166.081 172.462c16.7715 45.4043 33.0566 90.9873 49.376 136.564c-13.9473 17.6865 -32.6611 30.1123 -56.6582 30c-35.6621 -0.172852 -58.4736 -52.999 -70.4932 -79.8906
c-20.3662 -45.5537 -30.4023 -92.6709 -29.9541 -142.607c0.335938 -37.25 3.65039 -76.7959 28.1797 -104.803c10.4883 7.18359 23.5723 31.8438 27.0449 37.875c7.04883 12.2344 13.0615 25.0664 18.7607 37.9727c12.3047 27.8574 23.1943 56.3311 33.7441 84.8887z" />
    <glyph glyph-name="a" unicode="&#xe2;" horiz-adv-x="496" 
d="M493.579 252.497c4.27539 11.2119 36.2871 8.25293 31.3623 -4.9248c-27.9414 -74.8682 -56.1162 -150.062 -94.6777 -220.253c-28.6377 -52.1309 -70.7188 -130.523 -143.136 -106.11c-73.9531 24.9268 -80.3896 127.265 -82.6445 192.068
c-0.71875 20.6416 -0.579102 41.2783 0.228516 61.8916c-13.4951 -36.8623 -27.998 -73.2578 -44.6484 -108.491c-15.1377 -32.0312 -33.1787 -63.2822 -66.6709 -78.1914c-32.3018 -14.377 -67.4512 -2.62305 -89.666 23.9697
c-50.6328 60.6123 -35.6348 164.725 -11.4414 233.108c25.5889 72.3242 84.5996 133.268 166.507 127.521c25.6035 -1.79688 47.4863 -10.5957 65.5273 -24.1748c1.08301 6.47461 2.18457 12.9492 3.30957 19.4092c6.88965 39.5371 105.807 37.9873 101.088 0
c-8.6543 -69.6816 -18.9512 -139.2 -22.4238 -209.391c-3.02441 -61.1025 -6.5957 -130.635 16.8838 -188.386c3.4873 -8.5791 5.54102 -22.6152 14.709 -21.1309c13.0654 2.11914 26.4902 29.3701 33.2871 39.8359c17.5703 27.0596 33.2266 55.3232 47.5195 84.2402
c28.6885 58.0312 51.8457 118.573 74.8867 179.008zM166.081 172.462c16.7715 45.4043 33.0566 90.9873 49.376 136.564c-13.9473 17.6865 -32.6611 30.1123 -56.6582 30c-35.6621 -0.172852 -58.4736 -52.999 -70.4932 -79.8906
c-20.3662 -45.5537 -30.4023 -92.6709 -29.9541 -142.607c0.335938 -37.25 3.65039 -76.7959 28.1797 -104.803c10.4883 7.18359 23.5723 31.8438 27.0449 37.875c7.04883 12.2344 13.0615 25.0664 18.7607 37.9727c12.3047 27.8574 23.1943 56.3311 33.7441 84.8887z" />
    <glyph glyph-name="a" unicode="&#xe1;" horiz-adv-x="496" 
d="M493.579 252.497c4.27539 11.2119 36.2871 8.25293 31.3623 -4.9248c-27.9414 -74.8682 -56.1162 -150.062 -94.6777 -220.253c-28.6377 -52.1309 -70.7188 -130.523 -143.136 -106.11c-73.9531 24.9268 -80.3896 127.265 -82.6445 192.068
c-0.71875 20.6416 -0.579102 41.2783 0.228516 61.8916c-13.4951 -36.8623 -27.998 -73.2578 -44.6484 -108.491c-15.1377 -32.0312 -33.1787 -63.2822 -66.6709 -78.1914c-32.3018 -14.377 -67.4512 -2.62305 -89.666 23.9697
c-50.6328 60.6123 -35.6348 164.725 -11.4414 233.108c25.5889 72.3242 84.5996 133.268 166.507 127.521c25.6035 -1.79688 47.4863 -10.5957 65.5273 -24.1748c1.08301 6.47461 2.18457 12.9492 3.30957 19.4092c6.88965 39.5371 105.807 37.9873 101.088 0
c-8.6543 -69.6816 -18.9512 -139.2 -22.4238 -209.391c-3.02441 -61.1025 -6.5957 -130.635 16.8838 -188.386c3.4873 -8.5791 5.54102 -22.6152 14.709 -21.1309c13.0654 2.11914 26.4902 29.3701 33.2871 39.8359c17.5703 27.0596 33.2266 55.3232 47.5195 84.2402
c28.6885 58.0312 51.8457 118.573 74.8867 179.008zM166.081 172.462c16.7715 45.4043 33.0566 90.9873 49.376 136.564c-13.9473 17.6865 -32.6611 30.1123 -56.6582 30c-35.6621 -0.172852 -58.4736 -52.999 -70.4932 -79.8906
c-20.3662 -45.5537 -30.4023 -92.6709 -29.9541 -142.607c0.335938 -37.25 3.65039 -76.7959 28.1797 -104.803c10.4883 7.18359 23.5723 31.8438 27.0449 37.875c7.04883 12.2344 13.0615 25.0664 18.7607 37.9727c12.3047 27.8574 23.1943 56.3311 33.7441 84.8887z" />
    <glyph glyph-name="b" unicode="b" horiz-adv-x="511" 
d="M512.553 213.642c10.1904 8.98535 46.8809 1.19824 33.1104 -11.0312c-48.8447 -43.4482 -104.621 -76.1143 -161.004 -107.949c-20.1748 -118.578 -78.5654 -232.577 -190.365 -288.031c-29.1553 -14.4609 -61.9326 -24.0771 -94.2998 -14.6572
c-28.3291 8.24316 -46.8135 30.0791 -41.7441 60.4668c10.2324 61.3545 66.7832 107.837 113.116 143.682c35.877 27.75 74.5547 51.2158 113.966 73.542c7.16504 27.8115 12.4629 56.1455 16.2344 84.4375c7.2959 54.7217 11.749 115.661 -2.75391 169.599
c-4.9248 18.3164 -16.6836 54.2822 -41.1338 52.2891c-27.8809 -2.26855 -49.6426 -35.0088 -62.3857 -56.3408c-49.4092 -82.7188 -64.1035 -178.513 -75.9316 -272.869c1.95117 -22.5127 3.3418 -45.2363 -3.23535 -66.9512
c-7.59961 -25.0986 -60.8643 -17.8916 -71.7168 0c-15.9688 26.3311 -18.5361 61.4336 -23.0596 91.415c-4.52734 30.0186 -7.11816 60.3828 -9.71387 90.6211c-5.05957 58.9971 -7.40332 118.078 -7.81445 177.29c-0.835938 120.767 3.16895 244.059 23.2969 363.332
c5.8252 34.5371 92.1523 34.9434 89.7812 0c-8.23926 -121.285 -17.6445 -241.604 -15.2783 -363.333c0.938477 -48.1211 3.12793 -96.2705 6.14355 -144.331c2.6416 10.5166 5.49805 20.9863 8.66309 31.3818c18.1162 59.4824 48.7324 142.104 112.584 165.667
c53.8721 19.8809 108.276 -5.5498 134.024 -54.8984c32.1846 -61.6768 33.7344 -136.582 26.8311 -204.126c-0.167969 -1.65723 -0.37793 -3.31445 -0.55957 -4.97168c43.3594 25.1973 85.3838 52.3594 123.245 85.7676zM176.477 -130.95
c46.1562 44.8906 76.7305 100.545 96.9141 160.289c-9.01367 -5.81152 -17.9619 -11.7305 -26.752 -17.9062c-43.7236 -30.7285 -84.5537 -68.8926 -110.507 -116.196c-6.80078 -12.3936 -11.9404 -24.9316 -12.3281 -39.2012
c-0.167969 -6.23145 7.04883 -26.6533 0.901367 -25.2949c5.80664 -1.2832 23.7168 14.3965 27.6611 17.3555c8.50977 6.38086 16.4922 13.5459 24.1104 20.9541z" />
    <glyph glyph-name="c" unicode="c" horiz-adv-x="356" 
d="M364.964 250.21c5.00879 11.1279 37.3096 7.87695 31.7217 -4.97852c-21.9902 -50.5811 -48.3594 -98.9355 -75.4326 -146.936c-26.6865 -47.3232 -53.5498 -94.6787 -85.9863 -138.37c-12.8555 -17.3135 -26.4531 -34.0615 -42.0674 -48.9844
c-12.5654 -12.0146 -24.0947 -26.0791 -39.1904 -35.1064c-36.1104 -21.5986 -83.8809 -14.6719 -114.633 13.0557c-32.4277 29.2344 -45.0967 76.7109 -53.7744 117.863c-10.2178 48.4619 -13.4297 98.9727 -9.27051 148.335
c7.38965 87.6816 36.7695 181.412 113.215 232.908c30.4434 20.5059 78.9658 28.8379 111.375 7.71582c33.4316 -21.79 37.0908 -63.5771 37.7207 -99.8369c0.233398 -13.7139 -34.001 -13.7373 -35.084 0c-1.81543 23.083 -3.07129 48.6904 -18.1816 67.5488
c-3.97656 4.9668 -13.0928 14.4424 -18.7129 13.6484c-5.57812 -0.789062 -15.875 -14.083 -19.4365 -18.0928c-25.8184 -29.0898 -40.8535 -70.9746 -52.3223 -107.528c-26.9893 -86.0098 -25.9297 -178.41 -8.14551 -266.101
c3.91211 -19.2832 9.29395 -38.543 17.1875 -56.6172c3.18848 -7.2959 7.23535 -17.8965 13.1074 -23.5537c2.61426 -1.74121 4.13574 -2.96387 4.59766 -3.67383c5.25586 1.26074 10.3672 2.95508 15.2822 5.26074c39.9893 18.0273 68.9346 65.8496 92.2227 100.961
c50.8193 76.6279 98.0723 158.614 135.808 242.481z" />
    <glyph glyph-name="d" unicode="d" horiz-adv-x="514" 
d="M510.293 231.118c3.65039 11.292 35.6084 8.67871 31.3652 -4.9375c-28.124 -90.2529 -55.1045 -182.051 -101.508 -264.999c-16.5518 -29.585 -34.0186 -57.8398 -69.2334 -65.5703c-35.2236 -7.72949 -67.9824 11.3574 -90.332 37.7031
c-26.3545 31.0693 -34.4902 75.9746 -42.5518 114.76c-8.95801 43.0986 -13.2949 86.9951 -16.0117 130.892c-0.802734 13.0098 -1.4707 26.0332 -2.06348 39.0615c-17.8408 -51.459 -36.8154 -102.521 -59.8936 -151.351
c-15.1377 -32.0312 -33.1787 -63.2822 -66.6709 -78.1914c-32.3018 -14.377 -67.4512 -2.62305 -89.666 23.9697c-50.6328 60.6123 -35.6348 164.725 -11.4414 233.108c25.5889 72.3242 84.5996 133.268 166.507 127.521
c22.4014 -1.57324 41.9414 -8.52832 58.5635 -19.3301c0.700195 123.391 9.21875 247.042 21.6729 369.232c3.61328 35.4434 91.915 33.7305 89.0537 0c-7.6875 -90.6729 -12.1357 -181.472 -14.3203 -272.435c-3.66895 -152.896 0.453125 -303.415 28.9268 -453.949
c3.33789 -17.6582 7.54785 -35.0508 11.8564 -52.4805c4.56055 -18.4424 11.1562 -31.3721 28.1797 -12.6914c24.3145 26.6768 40.5068 66.0693 55.1729 98.6328c29.291 65.0322 50.4834 133.29 72.3945 201.054zM166.077 172.458
c16.7715 45.4043 33.0566 90.9873 49.376 136.564c-13.9473 17.6865 -32.6611 30.1123 -56.6582 30c-35.6621 -0.172852 -58.4736 -52.999 -70.4932 -79.8906c-20.3662 -45.5537 -30.4023 -92.6709 -29.9541 -142.607c0.335938 -37.25 3.65039 -76.7959 28.1797 -104.803
c10.4883 7.18359 23.5723 31.8438 27.0449 37.875c7.04883 12.2344 13.0615 25.0664 18.7607 37.9727c12.3047 27.8574 23.1943 56.3311 33.7441 84.8887z" />
    <glyph glyph-name="e" unicode="e" horiz-adv-x="341" 
d="M342.861 249.981c5.05566 11.1982 37.6377 8.08398 32.0732 -5.03711c-25.0947 -59.1562 -50.665 -118.037 -80.082 -175.2c-24.8887 -48.3594 -51.4951 -98.002 -90.126 -136.97c-29.6172 -29.8789 -66.7734 -51.3135 -110.124 -47.1826
c-51.5615 4.91016 -85.875 48.7744 -99.248 95.6445c-27.5684 96.6201 -26.6816 211.683 6.59082 307.028c15.5859 44.6758 41.7402 87.1816 80.5254 115.277c36.0312 26.1025 91.4199 36.6143 131.96 14.3623c33.2402 -18.2422 43.9111 -59.8799 16.0811 -87.8867
c-32.9131 -33.1182 -80.5723 -24.8281 -121.458 -37.3799c-14.4521 -37.5293 -22.71 -77.6914 -26.3369 -117.079c-6.58203 -71.4463 -6.65234 -156.648 20.7852 -224.141c3.41699 -8.40234 7.05371 -16.5996 13.0234 -23.4941
c2.7959 -3.23047 11.5996 -14.2471 15.1895 -14.8164c10.5537 -1.66602 28.3896 17.8779 35.7275 24.791c27.8721 26.2471 48.9385 58.4082 67.8438 91.4521c40.6338 71.0264 73.9297 146.132 107.575 220.631zM149.98 367.573
c-11.9121 -15.7676 -21.9707 -32.8018 -30.4854 -50.6377c31.7793 3.55664 68.4404 5.66699 83.3125 31.3633c8.22949 14.2139 3.19727 47.1318 -18.2051 48.4297c-13.4111 0.807617 -27.7139 -20.0156 -34.6221 -29.1553z" />
    <glyph glyph-name="e" unicode="&#xeb;" horiz-adv-x="341" 
d="M342.861 249.981c5.05566 11.1982 37.6377 8.08398 32.0732 -5.03711c-25.0947 -59.1562 -50.665 -118.037 -80.082 -175.2c-24.8887 -48.3594 -51.4951 -98.002 -90.126 -136.97c-29.6172 -29.8789 -66.7734 -51.3135 -110.124 -47.1826
c-51.5615 4.91016 -85.875 48.7744 -99.248 95.6445c-27.5684 96.6201 -26.6816 211.683 6.59082 307.028c15.5859 44.6758 41.7402 87.1816 80.5254 115.277c36.0312 26.1025 91.4199 36.6143 131.96 14.3623c33.2402 -18.2422 43.9111 -59.8799 16.0811 -87.8867
c-32.9131 -33.1182 -80.5723 -24.8281 -121.458 -37.3799c-14.4521 -37.5293 -22.71 -77.6914 -26.3369 -117.079c-6.58203 -71.4463 -6.65234 -156.648 20.7852 -224.141c3.41699 -8.40234 7.05371 -16.5996 13.0234 -23.4941
c2.7959 -3.23047 11.5996 -14.2471 15.1895 -14.8164c10.5537 -1.66602 28.3896 17.8779 35.7275 24.791c27.8721 26.2471 48.9385 58.4082 67.8438 91.4521c40.6338 71.0264 73.9297 146.132 107.575 220.631zM149.98 367.573
c-11.9121 -15.7676 -21.9707 -32.8018 -30.4854 -50.6377c31.7793 3.55664 68.4404 5.66699 83.3125 31.3633c8.22949 14.2139 3.19727 47.1318 -18.2051 48.4297c-13.4111 0.807617 -27.7139 -20.0156 -34.6221 -29.1553z" />
    <glyph glyph-name="e" unicode="&#xea;" horiz-adv-x="341" 
d="M342.861 249.981c5.05566 11.1982 37.6377 8.08398 32.0732 -5.03711c-25.0947 -59.1562 -50.665 -118.037 -80.082 -175.2c-24.8887 -48.3594 -51.4951 -98.002 -90.126 -136.97c-29.6172 -29.8789 -66.7734 -51.3135 -110.124 -47.1826
c-51.5615 4.91016 -85.875 48.7744 -99.248 95.6445c-27.5684 96.6201 -26.6816 211.683 6.59082 307.028c15.5859 44.6758 41.7402 87.1816 80.5254 115.277c36.0312 26.1025 91.4199 36.6143 131.96 14.3623c33.2402 -18.2422 43.9111 -59.8799 16.0811 -87.8867
c-32.9131 -33.1182 -80.5723 -24.8281 -121.458 -37.3799c-14.4521 -37.5293 -22.71 -77.6914 -26.3369 -117.079c-6.58203 -71.4463 -6.65234 -156.648 20.7852 -224.141c3.41699 -8.40234 7.05371 -16.5996 13.0234 -23.4941
c2.7959 -3.23047 11.5996 -14.2471 15.1895 -14.8164c10.5537 -1.66602 28.3896 17.8779 35.7275 24.791c27.8721 26.2471 48.9385 58.4082 67.8438 91.4521c40.6338 71.0264 73.9297 146.132 107.575 220.631zM149.98 367.573
c-11.9121 -15.7676 -21.9707 -32.8018 -30.4854 -50.6377c31.7793 3.55664 68.4404 5.66699 83.3125 31.3633c8.22949 14.2139 3.19727 47.1318 -18.2051 48.4297c-13.4111 0.807617 -27.7139 -20.0156 -34.6221 -29.1553z" />
    <glyph glyph-name="e" unicode="&#xe9;" horiz-adv-x="341" 
d="M342.861 249.981c5.05566 11.1982 37.6377 8.08398 32.0732 -5.03711c-25.0947 -59.1562 -50.665 -118.037 -80.082 -175.2c-24.8887 -48.3594 -51.4951 -98.002 -90.126 -136.97c-29.6172 -29.8789 -66.7734 -51.3135 -110.124 -47.1826
c-51.5615 4.91016 -85.875 48.7744 -99.248 95.6445c-27.5684 96.6201 -26.6816 211.683 6.59082 307.028c15.5859 44.6758 41.7402 87.1816 80.5254 115.277c36.0312 26.1025 91.4199 36.6143 131.96 14.3623c33.2402 -18.2422 43.9111 -59.8799 16.0811 -87.8867
c-32.9131 -33.1182 -80.5723 -24.8281 -121.458 -37.3799c-14.4521 -37.5293 -22.71 -77.6914 -26.3369 -117.079c-6.58203 -71.4463 -6.65234 -156.648 20.7852 -224.141c3.41699 -8.40234 7.05371 -16.5996 13.0234 -23.4941
c2.7959 -3.23047 11.5996 -14.2471 15.1895 -14.8164c10.5537 -1.66602 28.3896 17.8779 35.7275 24.791c27.8721 26.2471 48.9385 58.4082 67.8438 91.4521c40.6338 71.0264 73.9297 146.132 107.575 220.631zM149.98 367.573
c-11.9121 -15.7676 -21.9707 -32.8018 -30.4854 -50.6377c31.7793 3.55664 68.4404 5.66699 83.3125 31.3633c8.22949 14.2139 3.19727 47.1318 -18.2051 48.4297c-13.4111 0.807617 -27.7139 -20.0156 -34.6221 -29.1553z" />
    <glyph glyph-name="f" unicode="f" horiz-adv-x="343" 
d="M387.902 270.921c10.6475 7.36621 42.0117 -2.13184 25.0723 -14.2871c-91.1592 -65.3828 -186.188 -125.174 -283.961 -180.119c53.8857 -4.20996 104.756 -33.7764 126.19 -88.3486c30.6543 -78.0469 -15.1846 -198.516 -115.062 -174.551
c-118.597 28.4551 -133.31 177.962 -140.06 277.938c-8.51855 126.2 -9.83008 252.736 -5.88086 379.143c3.92578 125.733 8.15039 255.364 33.5439 378.834c7.56641 36.8105 99.9717 39.4805 98.5342 0c-4.1123 -112.673 -18.5684 -224.921 -23.8154 -337.649
c-4.68652 -100.709 -5.17188 -201.386 -3.73438 -302.179c0.555664 -38.8037 0.354492 -78.9102 1.72656 -119.04c98.6084 55.4727 194.313 115.856 287.446 180.259zM226.181 -45.4893c-9.94727 63.418 -66.4883 106.562 -124.02 100.695
c2.77734 -44.1113 8.30859 -87.8027 19.8379 -129.342c5.65234 -20.375 13.8955 -41.1475 25.0234 -59.2031c12.3701 -20.0723 24.5068 -31.6855 46.1377 -14.4189c30.1543 24.0723 38.7666 65.6396 33.0205 102.269z" />
    <glyph glyph-name="g" unicode="g" horiz-adv-x="459" 
d="M469.373 242.102c2.17969 12.9209 34.3223 11.9365 32.5303 0.00585938c-8.41113 -56.1123 -62.75 -105.531 -100.434 -144.316c-24.3564 -25.0664 -49.792 -48.999 -75.3066 -72.8467c-1.26953 -40.8301 -3.86523 -81.4922 -8.05273 -121.757
c-6.79688 -65.3926 -17.9199 -130.075 -35.6533 -193.413c-16.6455 -59.4551 -35.793 -128.134 -81.9209 -172.017c-36.6191 -34.8359 -100.816 -49.9688 -146.449 -22.8018c-46.1699 27.4893 -53.7734 84.708 -42.2061 132.819
c28.4414 118.274 114.115 222.223 197.576 306.926c3.44531 3.50098 6.94629 6.94629 10.4287 10.4053c0.443359 9.47559 0.844727 18.9512 1.15234 28.4268c2.5957 79.666 -1.24121 158.81 -6.43164 237.981c-19.2031 -56.0098 -39.4521 -111.739 -64.542 -164.836
c-15.1377 -32.0312 -33.1787 -63.2822 -66.6709 -78.1914c-32.3018 -14.377 -67.4512 -2.62305 -89.666 23.9697c-50.6328 60.6123 -35.6348 164.725 -11.4414 233.108c25.5889 72.3242 84.5996 133.268 166.507 127.521
c21.8643 -1.53613 41.0029 -8.19727 57.3682 -18.5596c-0.154297 2.27344 -0.308594 4.54688 -0.458008 6.8252c-2.60938 39.9434 98.2402 40.3447 103.277 0c12.1035 -96.9424 18.8721 -196.382 17.9941 -295.242c6.6377 6.21289 13.2568 12.4492 19.834 18.7324
c24.0166 22.9424 47.4404 46.5381 69.3184 71.5391c21.7285 24.8281 47.5703 52.0322 53.2461 85.7197zM156.08 172.463c16.7715 45.4043 33.0537 90.9873 49.377 136.564c-13.9473 17.6865 -32.6611 30.1123 -56.6582 30
c-35.6621 -0.172852 -58.4736 -52.999 -70.4932 -79.8906c-20.3662 -45.5537 -30.4023 -92.6709 -29.9541 -142.607c0.335938 -37.25 3.64551 -76.7959 28.1797 -104.803c10.4883 7.18359 23.5723 31.8438 27.0449 37.875c7.04883 12.2344 13.0605 25.0664 18.7598 37.9727
c12.2998 27.8574 23.1943 56.3311 33.7441 84.8887zM169.319 -367.459c26.1396 93.166 40.833 189.156 47.7832 285.599c-63.1006 -67.6836 -118.933 -142.785 -153.372 -229.169c-18.8164 -47.1924 -38.2109 -126.317 17.2109 -158.712
c26.126 -15.2734 49.5498 9.98926 62.5176 31.793c12.6729 21.3135 19.2129 46.7949 25.8604 70.4893z" />
    <glyph glyph-name="h" unicode="h" horiz-adv-x="495" 
d="M484.604 223.995c5.02246 12.7148 41.4053 9.18262 35.5889 -5.58691c-21.8125 -55.375 -43.6211 -110.792 -68.0996 -165.056c-21.8271 -48.3916 -44.2891 -99.0381 -76.2783 -141.712c-21.8828 -29.1836 -50.5625 -55.6553 -89.2266 -55.7998
c-46.501 -0.177734 -71.1982 40.5166 -80.8096 81.3135c-22.0186 93.4502 14.8438 190.616 36.8291 280.855c6.13379 25.1875 11.124 50.5293 15.75 76.0205c3.65527 20.1328 10.6104 40.9092 9.6582 61.5742c-0.233398 5.14844 -1.11523 16.8037 -7.01074 19.2734
c-9.0459 3.79492 -28.8564 -15.2783 -33.8418 -20.1465c-15.8848 -15.5205 -28.7959 -34.127 -40.0039 -53.2188c-42.7295 -72.7812 -62.0449 -157.998 -79.0029 -240.871c2.25488 -26.9854 5.89551 -54.6328 -2.03027 -80.8145
c-7.60352 -25.0986 -60.8682 -17.8916 -71.7207 0c-15.9688 26.3311 -18.5361 61.4336 -23.0596 91.415c-4.52734 30.0186 -7.11816 60.3828 -9.71387 90.6211c-5.05957 58.9971 -7.40332 118.078 -7.81445 177.29c-0.835938 120.767 3.16895 244.059 23.2969 363.332
c5.8252 34.5371 92.1523 34.9434 89.7812 0c-8.23926 -121.285 -17.6445 -241.604 -15.2783 -363.333c1.10156 -56.8643 3.95801 -113.766 7.87402 -170.518c14.7461 55.0713 34.458 108.467 65.5137 155.062c19.9414 29.916 45.3672 61.5361 82.1455 69.9053
c35.5781 8.09863 71.7871 -3.72461 86.3271 -39.0273c17.3506 -42.1318 11.2959 -91.8262 4.39258 -135.526c-7.46387 -47.2617 -19.1572 -93.5996 -27.7139 -140.643c-8.36035 -45.9883 -15.7217 -94.459 -16.2119 -141.259
c-0.130859 -12.5986 -2.0957 -27.2559 0.149414 -39.6582c-0.461914 2.5625 4.2666 -13.9854 4.71973 -14.1582c4.16406 -1.59668 12.8506 5.68555 15.8193 8.00977c18.8486 14.7412 32.8008 35.1025 44.9326 55.4268c51.8789 86.9111 87.9756 183.396 125.038 277.229z" />
    <glyph glyph-name="i" unicode="i" horiz-adv-x="311" 
d="M298.74 226.513c3.16504 11.707 35.9473 9.33496 32.418 -5.08887c-20.707 -84.7451 -52.1592 -166.278 -96.0186 -241.805c-31.2979 -53.8906 -73.2246 -110.671 -143.205 -92.5781c-55.7012 14.4004 -78.3398 68.6455 -90.6211 119.614
c-10.8018 44.8213 -16.5059 89.9365 -18.6904 135.971c-3.2998 69.5371 -3.54688 141.982 7.77246 210.782c6.42773 39.0322 102.945 40.54 102.185 0c-2.24023 -119.866 -16.8135 -239.816 6.4834 -358.828c4.44824 -22.7188 8.41602 -61.7139 30.7373 -73.9014
c26.6484 -14.5498 61.709 52.8447 72.9727 71.9736c42.9023 72.875 73.9482 152.35 95.9668 233.86zM69.7578 436.72c-9.61133 -14.8066 -38.8281 -14.2324 -48.5977 0c-21.8125 31.7744 -16.6035 84.8057 -13.042 121.294
c3.09473 31.7373 81.8652 31.2334 80.666 0.000976562c-1.40039 -36.5352 1.57324 -89.5576 -19.0264 -121.295z" />
    <glyph glyph-name="i" unicode="&#xef;" horiz-adv-x="311" 
d="M298.74 226.513c3.16504 11.707 35.9473 9.33496 32.418 -5.08887c-20.707 -84.7451 -52.1592 -166.278 -96.0186 -241.805c-31.2979 -53.8906 -73.2246 -110.671 -143.205 -92.5781c-55.7012 14.4004 -78.3398 68.6455 -90.6211 119.614
c-10.8018 44.8213 -16.5059 89.9365 -18.6904 135.971c-3.2998 69.5371 -3.54688 141.982 7.77246 210.782c6.42773 39.0322 102.945 40.54 102.185 0c-2.24023 -119.866 -16.8135 -239.816 6.4834 -358.828c4.44824 -22.7188 8.41602 -61.7139 30.7373 -73.9014
c26.6484 -14.5498 61.709 52.8447 72.9727 71.9736c42.9023 72.875 73.9482 152.35 95.9668 233.86zM69.7578 436.72c-9.61133 -14.8066 -38.8281 -14.2324 -48.5977 0c-21.8125 31.7744 -16.6035 84.8057 -13.042 121.294
c3.09473 31.7373 81.8652 31.2334 80.666 0.000976562c-1.40039 -36.5352 1.57324 -89.5576 -19.0264 -121.295z" />
    <glyph glyph-name="i" unicode="&#xee;" horiz-adv-x="311" 
d="M298.74 226.513c3.16504 11.707 35.9473 9.33496 32.418 -5.08887c-20.707 -84.7451 -52.1592 -166.278 -96.0186 -241.805c-31.2979 -53.8906 -73.2246 -110.671 -143.205 -92.5781c-55.7012 14.4004 -78.3398 68.6455 -90.6211 119.614
c-10.8018 44.8213 -16.5059 89.9365 -18.6904 135.971c-3.2998 69.5371 -3.54688 141.982 7.77246 210.782c6.42773 39.0322 102.945 40.54 102.185 0c-2.24023 -119.866 -16.8135 -239.816 6.4834 -358.828c4.44824 -22.7188 8.41602 -61.7139 30.7373 -73.9014
c26.6484 -14.5498 61.709 52.8447 72.9727 71.9736c42.9023 72.875 73.9482 152.35 95.9668 233.86zM69.7578 436.72c-9.61133 -14.8066 -38.8281 -14.2324 -48.5977 0c-21.8125 31.7744 -16.6035 84.8057 -13.042 121.294
c3.09473 31.7373 81.8652 31.2334 80.666 0.000976562c-1.40039 -36.5352 1.57324 -89.5576 -19.0264 -121.295z" />
    <glyph glyph-name="i" unicode="&#xed;" horiz-adv-x="311" 
d="M298.74 226.513c3.16504 11.707 35.9473 9.33496 32.418 -5.08887c-20.707 -84.7451 -52.1592 -166.278 -96.0186 -241.805c-31.2979 -53.8906 -73.2246 -110.671 -143.205 -92.5781c-55.7012 14.4004 -78.3398 68.6455 -90.6211 119.614
c-10.8018 44.8213 -16.5059 89.9365 -18.6904 135.971c-3.2998 69.5371 -3.54688 141.982 7.77246 210.782c6.42773 39.0322 102.945 40.54 102.185 0c-2.24023 -119.866 -16.8135 -239.816 6.4834 -358.828c4.44824 -22.7188 8.41602 -61.7139 30.7373 -73.9014
c26.6484 -14.5498 61.709 52.8447 72.9727 71.9736c42.9023 72.875 73.9482 152.35 95.9668 233.86zM69.7578 436.72c-9.61133 -14.8066 -38.8281 -14.2324 -48.5977 0c-21.8125 31.7744 -16.6035 84.8057 -13.042 121.294
c3.09473 31.7373 81.8652 31.2334 80.666 0.000976562c-1.40039 -36.5352 1.57324 -89.5576 -19.0264 -121.295z" />
    <glyph glyph-name="j" unicode="j" horiz-adv-x="239" 
d="M248.699 242.102c2.1748 12.9209 34.3154 11.9375 32.5322 0.00683594c-8.41113 -56.1123 -62.75 -105.531 -100.434 -144.316c-24.3564 -25.0664 -49.792 -48.999 -75.3066 -72.8467c-1.26953 -40.8301 -3.86523 -81.4922 -8.05273 -121.757
c-6.79688 -65.3926 -17.9199 -130.075 -35.6533 -193.413c-16.6455 -59.4551 -35.793 -128.134 -81.9209 -172.017c-36.6191 -34.8359 -100.816 -49.9688 -146.449 -22.8018c-46.1699 27.4893 -53.7734 84.708 -42.2061 132.819
c28.4414 118.274 114.115 222.223 197.577 306.926c3.44531 3.50098 6.94629 6.94629 10.4287 10.4053c0.443359 9.47559 0.844727 18.9512 1.15234 28.4268c4.00977 123.176 -7.32422 245.096 -15.334 367.818c-2.60938 39.9434 98.2402 40.3447 103.277 0
c12.1035 -96.9424 18.8721 -196.382 17.9941 -295.242c6.6377 6.21289 13.2568 12.4492 19.834 18.7324c24.0166 22.9424 47.4355 46.5381 69.3184 71.5391c21.7246 24.8281 47.5664 52.0322 53.2422 85.7197zM-51.3623 -367.459
c26.1445 93.166 40.8389 189.156 47.7842 285.599c-63.1006 -67.6836 -118.929 -142.785 -153.373 -229.169c-18.8164 -47.1924 -38.2109 -126.317 17.2109 -158.712c26.126 -15.2734 49.5498 9.98926 62.5176 31.793c12.6729 21.3135 19.2129 46.7949 25.8604 70.4893z
M17.666 445.31c-39.8594 25.5889 -40.9229 94.3887 -42.7852 137.021c-1.41406 32.418 83.2471 32.9551 83.583 0c0.251953 -24.6045 1.33496 -49.2041 1.60059 -73.8086c0.233398 -21.4912 1.95605 -45.0684 -13.9893 -61.126
c-6.41406 -6.45996 -21.0293 -6.82422 -28.4092 -2.08594z" />
    <glyph glyph-name="k" unicode="k" horiz-adv-x="451" 
d="M467.93 241.28c6.66992 10.4004 38.75 6.05176 31.7246 -4.97852c-48.957 -76.833 -119.171 -151.775 -211.123 -173.21c-75.2129 -17.5322 -136.903 19.5635 -186.43 70.5039c1.85352 -22.2891 3.93555 -44.5596 5.57422 -66.8672
c2.11914 -28.8945 6.97363 -58.7412 -1.5498 -86.8936c-7.60352 -25.0986 -60.8682 -17.8916 -71.7207 0c-15.9688 26.3311 -18.5361 61.4336 -23.0596 91.415c-4.52734 30.0195 -7.11816 60.3838 -9.71387 90.6221c-5.05957 58.9971 -7.40332 118.078 -7.81445 177.29
c-0.835938 120.767 3.16895 244.059 23.2969 363.332c5.8252 34.5371 92.1523 34.9434 89.7812 0c-8.23926 -121.285 -17.6445 -241.604 -15.2783 -363.333c0.293945 -15.1289 0.708984 -30.2578 1.23145 -45.3867c14.0039 29.8926 32.5586 57.7129 54.7217 82.3076
c38.9863 43.2568 107.375 97.4229 170.036 74.2939c79.3486 -29.291 1.49316 -120.954 -34.1416 -150.814c-43.3877 -36.3623 -98.5381 -67.9541 -153.941 -88.5303c37.5107 -55.501 87.5361 -123.189 159.776 -120.809c37.8428 1.24609 73.9531 31.877 100.229 56.2949
c30.1963 28.0537 56.168 60.1084 78.4014 94.7627zM159.9 341.422c-22.2148 -30.1406 -38.2725 -63.6943 -49.0459 -99.0908c38.5098 13.3877 77.2158 25.8184 112.248 48.4297c23.0781 14.8955 44.2002 32.6709 62.041 53.5967
c16.2119 19.0166 44.4756 58.876 20.1143 82.873c-23.8711 23.5215 -72.7627 -14.0127 -91.6445 -29.3467c-20.1885 -16.3936 -38.29 -35.541 -53.7129 -56.4619z" />
    <glyph glyph-name="l" unicode="l" horiz-adv-x="289" 
d="M285.538 231.118c3.65039 11.292 35.6123 8.67871 31.3643 -4.9375c-28.124 -90.2529 -55.1045 -182.051 -101.508 -264.999c-16.5527 -29.585 -34.0195 -57.8398 -69.2344 -65.5703c-35.2236 -7.72949 -67.9824 11.3574 -90.332 37.7031
c-26.3545 31.0693 -34.4902 75.9746 -42.5518 114.76c-8.95801 43.0986 -13.2949 86.9951 -16.0117 130.892c-11.1982 180.824 -1.33496 364.015 17.0098 544.021c3.61328 35.4434 91.915 33.7305 89.0537 0c-7.6875 -90.6729 -12.1357 -181.472 -14.3203 -272.435
c-3.66895 -152.896 0.453125 -303.415 28.9268 -453.949c3.33789 -17.6582 7.54785 -35.0508 11.8564 -52.4805c4.56055 -18.4424 11.1562 -31.3721 28.1797 -12.6914c24.3145 26.6768 40.5068 66.0693 55.1729 98.6328c29.291 65.0322 50.4834 133.29 72.3945 201.054z" />
    <glyph glyph-name="m" unicode="m" horiz-adv-x="668" 
d="M672.996 230.819c6.83887 8.02441 40.7705 3.93652 32.7275 -7.85938c-37.6416 -55.1924 -67.0166 -130.069 -122.69 -170.073c-27.7178 -19.918 -60.6172 -19.5117 -90.9912 -5.81641c-36.7129 16.5527 -48.873 51.7158 -48.3359 89.8613
c0.583008 41.3662 6.4502 82.8867 13.5918 123.558c3.7666 21.458 9.17676 42.4209 10.4512 64.2246c0.3125 5.33105 4.11719 12.79 -3.44922 13.9287c-5.89551 0.886719 -20.8047 -16.7158 -24.5254 -20.8984c-51.1133 -57.4385 -67.5674 -145.797 -86.2246 -218.667
c-0.144531 -4 -0.289062 -7.99609 -0.452148 -11.9727c-1.45215 -35.7002 -85.5293 -34.7197 -89.7812 0c-7.84668 64.0527 -0.943359 130.057 2.64648 194.249c1.62891 29.2021 4.59766 59.2256 3.40234 88.4697c-0.223633 5.43359 0.826172 14.6992 -2.4082 19.124
c-5.60156 7.66504 -12.5615 0.313477 -18.5781 -4.56934c-11.1562 -9.05566 -20.002 -22.6348 -27.499 -34.5566c-63.0254 -100.257 -87.415 -228.353 -92.7646 -345.007c-0.0888672 -1.96094 -0.975586 -3.57617 -2.31055 -4.92969
c-0.555664 -11.5625 -3.51953 -22.5791 -11.4502 -32.2373c-8.70996 -10.6104 -33.7764 -10.2178 -44.1572 -3.24414c-28.2363 18.9658 -34.1133 52.3926 -41.8662 83.8164c-7.10449 28.8145 -12.085 58.0771 -16.4863 87.415
c-9.38672 62.5498 -13.7842 125.939 -12.5801 189.17c0.732422 38.7061 97.2734 38.5615 98.5342 0c2.02148 -61.7236 5.52734 -123.241 11.834 -184.689c0.228516 -2.21289 0.503906 -4.42578 0.742188 -6.63867c5.66211 30.0703 12.7988 59.8701 21.6309 89.25
c18.3496 61.0234 44.0273 142.123 98.6738 180.848c19.5215 13.8359 43.4629 15.9502 64.3652 3.8418c28.8145 -16.6924 39.4482 -49.1016 45.6191 -79.9326c6.61914 -33.0908 10.4238 -67.2646 12.3799 -101.69c11.3896 32.2881 25.9111 63.0771 45.4697 89.8848
c16.6826 22.8721 43.2891 48.7178 74.1152 47.1816c31.9746 -1.5918 51.374 -29.4033 59.0479 -57.5322c11.2588 -41.2822 10.9414 -81.8457 8.70508 -124.244c-1.07812 -20.4688 -1.91797 -40.8672 -2.54785 -61.3496
c-0.34082 -11.1328 -0.359375 -21.7568 0.266602 -32.8711c0.214844 -3.78516 0.303711 -20.7812 4.04297 -23.4092c7.25391 -5.09277 31.7041 22.8164 36.9316 28.7588c12.6543 14.3818 23.376 30.2852 33.5664 46.4688c19.5068 30.9805 36.5068 64.1553 60.3545 92.1387z
" />
    <glyph glyph-name="n" unicode="n" horiz-adv-x="408" 
d="M412.976 232.893c7.46387 12.0762 44.5889 7.36914 36.6445 -5.75684c-21.3691 -35.2988 -42.375 -71.1104 -66.1719 -104.854c-17.1357 -24.292 -38.2578 -48.7188 -68.291 -56.1357c-29.9121 -7.38965 -62.4336 1.51172 -84.2607 23.334
c-25.4443 25.4395 -32.7266 56.3877 -33.4082 91.3271c-0.658203 33.7256 7.05273 71.2832 1.62891 104.579c-2.27832 13.9941 -3.77246 10.251 -13.6914 0.588867c-6.19922 -6.03516 -11.2314 -13.2051 -15.9414 -20.4121
c-10.2646 -15.7031 -18.6387 -32.9326 -26.0791 -50.1289c-16.0059 -36.9883 -26.7559 -76.0537 -35.0088 -115.427c-8.09375 -38.6309 -15.7676 -77.832 -13.4521 -117.462c0.154297 -2.59961 -1.04102 -4.7002 -3.04785 -6.32031
c0.117188 -8.11719 -0.144531 -16.1602 -1.11035 -24.0303c-1.64355 -13.3359 -22.2705 -16.5098 -32.5908 -14.1523c-37.1846 8.49512 -43.6357 41.749 -51.8096 75.166c-8.58398 35.0928 -12.1035 71.9639 -14.1943 107.977
c-4.50488 77.6504 -5.20996 156.98 6.18457 234.075c5.15332 34.8359 91.5928 35.2891 90.1504 0c-2.87988 -70.4336 -7.78125 -140.563 -5.98926 -211.118c0.00976562 -0.359375 0.0195312 -0.723633 0.0292969 -1.08301c5.44238 21.2344 11.8281 42.2207 19.6934 62.6758
c18.877 49.0918 56.458 133.426 123.661 106.548c28.5576 -11.4219 40.6104 -41.8145 45.166 -70.2842c5.83496 -36.4697 3.60352 -73.2197 10.8291 -109.694c1.84375 -9.32129 6.8291 -38.8877 18.2139 -43.4902c13.5459 -5.48438 40.1387 32.1523 45.4463 39.416
c24.4316 33.4453 45.6426 69.458 67.3994 104.663z" />
    <glyph glyph-name="o" unicode="o" horiz-adv-x="289" 
d="M313.926 248.398c8.58887 6.6748 40.6426 1.19336 28.3984 -9.46289c-38.3184 -33.3701 -82.9902 -58.5723 -131.186 -74.3818c-5.25586 -44.1484 -17.8594 -88.7402 -41.1143 -126.167c-24.5059 -39.4385 -66.5029 -78.7695 -116.146 -58.0117
c-45.4092 18.9844 -65.21 74.6953 -72.417 119.292c-8.90625 55.1133 -1.25586 112.248 17.6816 164.519c-4.79883 57.1582 23.792 117.99 82.5 134.575c115.67 32.6748 135.765 -126.952 131.965 -204.705c-0.0703125 -1.37695 -0.172852 -2.76367 -0.251953 -4.14551
c0.102539 0.0371094 0.209961 0.0791016 0.307617 0.116211c36.0498 14.1768 69.7334 34.6406 100.262 58.3721zM156.417 94.2734c6.86133 19.376 11.668 39.3691 14.791 59.6367c-35.1816 -6.9873 -71.5166 -7.16016 -103.444 7.61816
c-1.48926 -12.6221 -2.44141 -25.3418 -2.70312 -38.1738c-0.396484 -19.25 0.201172 -38.5186 3.7998 -57.4844c2.83301 -14.9189 7.7207 -41.1152 19.6846 -52.2852c24.6328 -22.9893 61.6914 63.2354 67.8721 80.6885zM175.727 210.883
c0.34082 39.8633 -3.03125 82.0381 -18.4072 119.185c-6.7168 16.2158 -15.8467 33.7061 -30.915 43.5928c-21.0566 13.8076 -43.1357 1.54492 -58.4365 -15.166c-16.6172 -18.1484 -26.9893 -42.0947 -30.4766 -66.8857c28.5625 2.72559 62.0361 -9.10742 53.415 -33.1006
c-8.06641 -22.4473 -14.3867 -45.2822 -18.7881 -68.4766c6.07715 -5.03711 12.9111 -9.44336 20.6133 -12.9766c24.8281 -11.3994 53.8857 -8.24414 81.2119 -0.691406c1.06445 11.4785 1.68555 22.999 1.7832 34.5195z" />
    <glyph glyph-name="o" unicode="&#xf6;" horiz-adv-x="289" 
d="M313.926 248.398c8.58887 6.6748 40.6426 1.19336 28.3984 -9.46289c-38.3184 -33.3701 -82.9902 -58.5723 -131.186 -74.3818c-5.25586 -44.1484 -17.8594 -88.7402 -41.1143 -126.167c-24.5059 -39.4385 -66.5029 -78.7695 -116.146 -58.0117
c-45.4092 18.9844 -65.21 74.6953 -72.417 119.292c-8.90625 55.1133 -1.25586 112.248 17.6816 164.519c-4.79883 57.1582 23.792 117.99 82.5 134.575c115.67 32.6748 135.765 -126.952 131.965 -204.705c-0.0703125 -1.37695 -0.172852 -2.76367 -0.251953 -4.14551
c0.102539 0.0371094 0.209961 0.0791016 0.307617 0.116211c36.0498 14.1768 69.7334 34.6406 100.262 58.3721zM156.417 94.2734c6.86133 19.376 11.668 39.3691 14.791 59.6367c-35.1816 -6.9873 -71.5166 -7.16016 -103.444 7.61816
c-1.48926 -12.6221 -2.44141 -25.3418 -2.70312 -38.1738c-0.396484 -19.25 0.201172 -38.5186 3.7998 -57.4844c2.83301 -14.9189 7.7207 -41.1152 19.6846 -52.2852c24.6328 -22.9893 61.6914 63.2354 67.8721 80.6885zM175.727 210.883
c0.34082 39.8633 -3.03125 82.0381 -18.4072 119.185c-6.7168 16.2158 -15.8467 33.7061 -30.915 43.5928c-21.0566 13.8076 -43.1357 1.54492 -58.4365 -15.166c-16.6172 -18.1484 -26.9893 -42.0947 -30.4766 -66.8857c28.5625 2.72559 62.0361 -9.10742 53.415 -33.1006
c-8.06641 -22.4473 -14.3867 -45.2822 -18.7881 -68.4766c6.07715 -5.03711 12.9111 -9.44336 20.6133 -12.9766c24.8281 -11.3994 53.8857 -8.24414 81.2119 -0.691406c1.06445 11.4785 1.68555 22.999 1.7832 34.5195z" />
    <glyph glyph-name="o" unicode="&#xf5;" horiz-adv-x="289" 
d="M313.926 248.398c8.58887 6.6748 40.6426 1.19336 28.3984 -9.46289c-38.3184 -33.3701 -82.9902 -58.5723 -131.186 -74.3818c-5.25586 -44.1484 -17.8594 -88.7402 -41.1143 -126.167c-24.5059 -39.4385 -66.5029 -78.7695 -116.146 -58.0117
c-45.4092 18.9844 -65.21 74.6953 -72.417 119.292c-8.90625 55.1133 -1.25586 112.248 17.6816 164.519c-4.79883 57.1582 23.792 117.99 82.5 134.575c115.67 32.6748 135.765 -126.952 131.965 -204.705c-0.0703125 -1.37695 -0.172852 -2.76367 -0.251953 -4.14551
c0.102539 0.0371094 0.209961 0.0791016 0.307617 0.116211c36.0498 14.1768 69.7334 34.6406 100.262 58.3721zM156.417 94.2734c6.86133 19.376 11.668 39.3691 14.791 59.6367c-35.1816 -6.9873 -71.5166 -7.16016 -103.444 7.61816
c-1.48926 -12.6221 -2.44141 -25.3418 -2.70312 -38.1738c-0.396484 -19.25 0.201172 -38.5186 3.7998 -57.4844c2.83301 -14.9189 7.7207 -41.1152 19.6846 -52.2852c24.6328 -22.9893 61.6914 63.2354 67.8721 80.6885zM175.727 210.883
c0.34082 39.8633 -3.03125 82.0381 -18.4072 119.185c-6.7168 16.2158 -15.8467 33.7061 -30.915 43.5928c-21.0566 13.8076 -43.1357 1.54492 -58.4365 -15.166c-16.6172 -18.1484 -26.9893 -42.0947 -30.4766 -66.8857c28.5625 2.72559 62.0361 -9.10742 53.415 -33.1006
c-8.06641 -22.4473 -14.3867 -45.2822 -18.7881 -68.4766c6.07715 -5.03711 12.9111 -9.44336 20.6133 -12.9766c24.8281 -11.3994 53.8857 -8.24414 81.2119 -0.691406c1.06445 11.4785 1.68555 22.999 1.7832 34.5195z" />
    <glyph glyph-name="o" unicode="&#xf4;" horiz-adv-x="289" 
d="M313.926 248.398c8.58887 6.6748 40.6426 1.19336 28.3984 -9.46289c-38.3184 -33.3701 -82.9902 -58.5723 -131.186 -74.3818c-5.25586 -44.1484 -17.8594 -88.7402 -41.1143 -126.167c-24.5059 -39.4385 -66.5029 -78.7695 -116.146 -58.0117
c-45.4092 18.9844 -65.21 74.6953 -72.417 119.292c-8.90625 55.1133 -1.25586 112.248 17.6816 164.519c-4.79883 57.1582 23.792 117.99 82.5 134.575c115.67 32.6748 135.765 -126.952 131.965 -204.705c-0.0703125 -1.37695 -0.172852 -2.76367 -0.251953 -4.14551
c0.102539 0.0371094 0.209961 0.0791016 0.307617 0.116211c36.0498 14.1768 69.7334 34.6406 100.262 58.3721zM156.417 94.2734c6.86133 19.376 11.668 39.3691 14.791 59.6367c-35.1816 -6.9873 -71.5166 -7.16016 -103.444 7.61816
c-1.48926 -12.6221 -2.44141 -25.3418 -2.70312 -38.1738c-0.396484 -19.25 0.201172 -38.5186 3.7998 -57.4844c2.83301 -14.9189 7.7207 -41.1152 19.6846 -52.2852c24.6328 -22.9893 61.6914 63.2354 67.8721 80.6885zM175.727 210.883
c0.34082 39.8633 -3.03125 82.0381 -18.4072 119.185c-6.7168 16.2158 -15.8467 33.7061 -30.915 43.5928c-21.0566 13.8076 -43.1357 1.54492 -58.4365 -15.166c-16.6172 -18.1484 -26.9893 -42.0947 -30.4766 -66.8857c28.5625 2.72559 62.0361 -9.10742 53.415 -33.1006
c-8.06641 -22.4473 -14.3867 -45.2822 -18.7881 -68.4766c6.07715 -5.03711 12.9111 -9.44336 20.6133 -12.9766c24.8281 -11.3994 53.8857 -8.24414 81.2119 -0.691406c1.06445 11.4785 1.68555 22.999 1.7832 34.5195z" />
    <glyph glyph-name="o" unicode="&#xf3;" horiz-adv-x="289" 
d="M313.926 248.398c8.58887 6.6748 40.6426 1.19336 28.3984 -9.46289c-38.3184 -33.3701 -82.9902 -58.5723 -131.186 -74.3818c-5.25586 -44.1484 -17.8594 -88.7402 -41.1143 -126.167c-24.5059 -39.4385 -66.5029 -78.7695 -116.146 -58.0117
c-45.4092 18.9844 -65.21 74.6953 -72.417 119.292c-8.90625 55.1133 -1.25586 112.248 17.6816 164.519c-4.79883 57.1582 23.792 117.99 82.5 134.575c115.67 32.6748 135.765 -126.952 131.965 -204.705c-0.0703125 -1.37695 -0.172852 -2.76367 -0.251953 -4.14551
c0.102539 0.0371094 0.209961 0.0791016 0.307617 0.116211c36.0498 14.1768 69.7334 34.6406 100.262 58.3721zM156.417 94.2734c6.86133 19.376 11.668 39.3691 14.791 59.6367c-35.1816 -6.9873 -71.5166 -7.16016 -103.444 7.61816
c-1.48926 -12.6221 -2.44141 -25.3418 -2.70312 -38.1738c-0.396484 -19.25 0.201172 -38.5186 3.7998 -57.4844c2.83301 -14.9189 7.7207 -41.1152 19.6846 -52.2852c24.6328 -22.9893 61.6914 63.2354 67.8721 80.6885zM175.727 210.883
c0.34082 39.8633 -3.03125 82.0381 -18.4072 119.185c-6.7168 16.2158 -15.8467 33.7061 -30.915 43.5928c-21.0566 13.8076 -43.1357 1.54492 -58.4365 -15.166c-16.6172 -18.1484 -26.9893 -42.0947 -30.4766 -66.8857c28.5625 2.72559 62.0361 -9.10742 53.415 -33.1006
c-8.06641 -22.4473 -14.3867 -45.2822 -18.7881 -68.4766c6.07715 -5.03711 12.9111 -9.44336 20.6133 -12.9766c24.8281 -11.3994 53.8857 -8.24414 81.2119 -0.691406c1.06445 11.4785 1.68555 22.999 1.7832 34.5195z" />
    <glyph glyph-name="p" unicode="p" horiz-adv-x="466" 
d="M483.32 235.306c11.0586 6.94141 42.9951 -3.29492 25.3223 -14.4229c-40.2227 -25.3604 -84.1426 -42.7578 -128.002 -60.458c-4.94824 -30.5654 -13.6113 -60.6494 -24.5479 -89.4922c-22.2842 -58.7549 -57.6523 -112.935 -127.428 -112.183
c-49.8291 0.532227 -86.626 44.4805 -60.0381 91.6543c24.8428 44.0791 74.752 74.2891 120.357 96.209c2.74023 11.0166 5.18652 22.1074 7.22656 33.292c8.64453 47.4111 12.8086 103.178 -0.728516 150.053c-6.5957 22.8398 -22.6719 62.5449 -50.3428 38.4492
c-17.7383 -15.4463 -30.874 -35.5039 -41.834 -56.1221c-48.5039 -91.2568 -69.3789 -196.886 -80.3115 -298.72c-5.53125 -51.501 -8.34082 -103.254 -10.1328 -155.002c-0.537109 -15.5156 -1.41504 -31.2793 -2.18555 -47.1318
c2.0166 -28.8711 3.70605 -57.8584 4.45801 -86.7803c0.574219 -22.1719 3.67383 -54.6934 -14.5264 -71.0078c-17.9668 -16.1045 -46.2119 -4.14551 -56.6777 14.0312c-14.7275 25.5801 -15.3809 62.9229 -19.4414 91.4766
c-9.54102 67.0908 -16.6689 134.541 -22.7236 202.029c-12.3789 137.973 -20.1514 276.449 1.61914 413.923c6.28809 39.6904 104.775 36.2314 99.2676 -0.000976562c-15.7588 -103.664 -15.6846 -208.826 -10.0039 -313.387c3.91211 27.9648 8.77148 55.79 14.9287 83.3682
c13.7139 61.4385 32.418 124.487 63.2588 179.727c23.8154 42.6553 62.792 89.5391 117.056 72.9639c58.0732 -17.7422 85.1377 -83.4326 93.8154 -137.986c3.85059 -24.2305 4.3457 -48.6484 2.25488 -72.8936c34.1543 13.9287 67.9121 28.6562 99.3594 48.4111z
M245.907 33.9854c13.8164 25.6074 24.9609 52.4443 33.7969 80.0312c-26.9199 -15.749 -51.5664 -34.9717 -68.4316 -59.7725c-8.28125 -12.1787 -23.1719 -56.1875 2.2168 -55.4082c13.6533 0.419922 26.7188 24.5859 32.418 35.1494z" />
    <glyph glyph-name="q" unicode="q" horiz-adv-x="468" 
d="M314.49 20.126c-0.387695 -0.424805 -0.828125 -0.905273 -1.2998 -1.4043c-0.00488281 -1.8252 -0.0605469 -3.65039 -0.0605469 -5.47559c-0.00488281 -7.92578 0.111328 -15.8379 0.195312 -23.7549c2.12402 -0.503906 4.10742 -0.952148 5.34863 -1.42871
c77.9258 -29.9629 129.407 -110.353 115.94 -194.085c-6.29688 -39.1494 -25.6729 -82.9619 -59.4121 -106.007c-35.0137 -23.918 -80.3438 -9.95215 -103.889 23.4229c-60.0244 85.0859 -63.2402 206.227 -64.0898 306.395
c-0.490234 57.5312 2.11426 115.114 6.3623 172.478c0.298828 4.02832 0.597656 8.07031 0.896484 12.1084c-16.2676 -46.1416 -33.6885 -91.8213 -54.4229 -135.694c-15.1377 -32.0312 -33.1748 -63.2822 -66.6719 -78.1914
c-32.2969 -14.377 -67.4463 -2.62305 -89.6611 23.9697c-50.6328 60.6123 -35.6348 164.725 -11.4414 233.108c25.5889 72.3242 84.5996 133.268 166.507 127.521c27.6523 -1.94141 50.959 -12.0615 69.7754 -27.5352c0.854492 2.38086 1.7041 4.76172 2.5625 7.14258
c0.0888672 0.24707 0.266602 0.448242 0.378906 0.686523c0.550781 2.93164 1.03613 5.87695 1.62402 8.79883c7.79102 38.7715 105.205 41.1191 103.277 0c-2.76367 -58.8994 -11.7871 -117.645 -16.3574 -176.45c-3.2207 -41.418 -5.33105 -82.8828 -6.29688 -124.39
c59.2354 58.7871 123.021 113.079 173.332 180.203c6.30176 8.40723 36.8906 2.60547 29.7305 -7.14062c-33.4824 -45.5859 -72.6973 -85.8555 -113.191 -125.187c-20.4219 -19.8389 -41.0303 -39.4951 -61.0459 -59.7441
c-9.51758 -9.62988 -18.9229 -19.3809 -28.0908 -29.3467zM166.074 172.458c16.7715 45.4043 33.0586 90.9873 49.3818 136.564c-13.9473 17.6865 -32.6611 30.1123 -56.6582 30c-35.6621 -0.172852 -58.4736 -52.999 -70.4932 -79.8906
c-20.3662 -45.5537 -30.4023 -92.6709 -29.9541 -142.607c0.331055 -37.25 3.64551 -76.7959 28.1748 -104.803c10.4883 7.18359 23.5723 31.8438 27.0449 37.875c7.04883 12.2344 13.0605 25.0664 18.7598 37.9727c12.2998 27.8574 23.1943 56.3311 33.7441 84.8887z
M379 -99.2852c-16.2207 28.376 -38.4541 47.3857 -65.2383 61.6689c0.755859 -33.9824 2.15625 -67.9131 4.04688 -101.951c2.38086 -42.8652 3.24902 -91.915 18.4336 -132.493c1.47949 -3.96289 8.84961 -26.9619 14.1992 -26.7988
c0.303711 0.0136719 13.2246 16.6641 14.8252 18.6855c12.8877 16.2861 22.3262 35.6719 28.124 55.5713c12.1602 41.7305 7.19336 87.5547 -14.3906 125.317z" />
    </font>
</defs>
</svg>
